<?xml version="1.0" standalone="no"?>
<!DOCTYPE svg PUBLIC "-//W3C//DTD SVG 1.1//EN" "http://www.w3.org/Graphics/SVG/1.1/DTD/svg11.dtd" >
<svg>
<metadata>
Created by FontForge 20090914 at Mon Apr  7 02:52:01 2014
 By www-data
Typeface and data &#194;&#169; 2003, Arabeyes.org. This font is distributed under the terms of GPL license.
</metadata>
<defs>
<font id="ae_AlMothnna-Bold" horiz-adv-x="1024" >
  <font-face 
    font-family="ae_AlMothnna"
    font-weight="700"
    font-stretch="normal"
    units-per-em="2048"
    panose-1="2 11 8 3 3 6 4 2 2 4"
    ascent="1556"
    descent="-492"
    x-height="1120"
    cap-height="1493"
    bbox="-408 -761.001 2902 2084"
    underline-thickness="258"
    underline-position="-98"
    unicode-range="U+0020-U+FEFC"
  />
<missing-glyph horiz-adv-x="1229" 
d="M102 -362v1806h1024v-1806h-1024zM217 -248h795v1577h-795v-1577z" />
    <glyph glyph-name="allahisolated" unicode="&#xfedf;&#xfee0;&#xfeea;" horiz-adv-x="2256" arabic-form="isolated" 
d="M1570 1694l-2 -9l-5 -7l-8 -6l-6 -3l-6 -3h-4l-276 -48h-5h-7l-7 2h-4l-3 2l-7 5l-7 8l-4 10v9l3 10l5 5l3 4l3 2l6 3l6 2l3 2l276 48h7h7l7 -1l8 -3l7 -4l7 -8l3 -10v-10zM1631 1443l0.000976562 -8.00098l-4 -13c-1.33301 -8.66699 -5 -15.667 -11 -21l-11 -10l-13 -5
l-254 -37l-11 -2h-7c-5.33301 0 -9 0.666992 -11 2l-20 9l-8 9l-5 16l-4 16l-1 13l-17 114l-2 18c0 8 1.33301 14.667 4 20l4 6l5 6c5.33301 5.33301 9.66602 8.33301 12.999 9l13 2c6.66699 0 12.667 -1.33301 18 -4c4 0 9 -4.33301 15 -13l3 -7l20 -141l68 10l-15 131
c0 14.667 2.66699 25.834 8 33.501s13 11.5 23 11.5l28 -6c8 -8 12.333 -15.667 13 -23l19 -134l68 6l-20 119l3 36c2 10 10.667 16 26 18c14 2 24.333 -0.166992 31 -6.5s12 -16.833 16 -31.5l16 -126v-9v-8zM2156 290.999c0 -53.333 -8.16309 -98.5029 -24.4961 -135.503
s-39.833 -67.5 -70.5 -91.5c-56.667 -41.333 -134.667 -62 -234 -62h-441h-403l-16 -1l-38 1l-17 1l-38 5l-24 4l-27 9c-26.667 8 -53.334 23 -80.001 45l-29 29l-7 8l-45 -18l-45 -14c-34 -8 -68 -12 -102 -12c-56.667 0 -110 10.333 -160 31
c-11.333 4 -22.5 8.66699 -33.5 14s-22.833 12 -35.5 20c-22 14 -43.167 31.333 -63.5 52s-37.5 41 -51.5 61s-27 43 -39 69c-21.333 52.667 -32 104.667 -32 156c0 54.667 10.667 106.334 32 155.001c2 5.33301 4.16699 10.5 6.5 15.5s5.83301 10.833 10.5 17.5l22 35
c15.333 21.333 32.666 41.666 51.999 60.999c38 37.333 82.333 66.5 133 87.5s103.667 31.5 159 31.5c25.333 0 49.666 -2 72.999 -6c19.333 -2 40.666 -8 63.999 -18v5v64l2 24c2 14 7.5 29.833 16.5 47.5s23.5 33.834 43.5 48.501c18.667 16.667 45.667 25 81 25h26l29 -4
c14 -2 26.667 -7.33301 38 -16c22 -12 38.333 -28.667 49 -50c10 -16 16 -32.333 18 -49l2 -26v-578c0 -6.66699 0.666992 -11.334 2 -14.001l12 -12c8.66699 -8.66699 19 -13 31 -13l18 -2h87h54h51h79v839l2 24l5 25c2 8.66699 5.66699 16.334 11 23.001l6 11l12 15l28 26
c20 14 49.333 21 88 21l29 -1c8 0 15.667 -1.33301 23 -4c12 -2 23.333 -7.33301 34 -16c22 -16 37.333 -33.333 46 -52l11 -25l5 -23l2 -24v-839h76h43h35h58l26 4c5.33301 2 9.66602 5.66699 12.999 11c6.66699 8.66699 10 21.334 10 38.001v786l2 24l7 30l10 20l6 11
l13 16c5.33301 6.66699 14.333 14.334 27 23.001c19.333 14 48 21 86 21s67.333 -7.33301 88 -22s35.334 -31.667 44.001 -51l10 -23l7 -25l2 -24v-839zM655.005 457.996c0 36.667 -13.332 67.833 -39.999 93.5s-58.667 38.5 -96 38.5c-38 0 -70 -13.333 -96 -40
c-26 -24 -39 -54.667 -39 -92c0 -36 13 -67 39 -93s58 -39 96 -39s70.667 13.333 98 40c11.333 11.333 20.666 25.333 27.999 42c6.66699 18 10 34.667 10 50z" />
    <glyph glyph-name="lamwithalefmaddaaboveisolatedd" unicode="&#xfedf;&#xfe82;" horiz-adv-x="1115" arabic-form="isolated" 
d="M545 1528c0 -12 -5.99902 -20.667 -17.999 -26l-8 -4l-12 -1l-38 2l-32 1h-40l-32 -4l-132 -10l-59 1h-16l-24 1c-10.667 1.33301 -18 4 -22 8c-8 6 -12 15.333 -12 28c0 13.333 7.33301 22.333 22 27l12 2l29 -5l36 -2c21.333 0 72.666 4.33301 153.999 13
c39.333 4 69 6 89 6l43 -1c8 0 13.333 -0.666992 16 -2l15 -4c5.33301 0 9 -0.666992 11 -2c12 -6 18 -15.333 18 -28zM1015 -84l-15.998 -95.9971c-20 -72.667 -57.333 -132.334 -112 -179.001c-76.667 -64.667 -179.334 -97 -308.001 -97c-122.667 0 -219 28.667 -289 86
c-50 41.333 -85 94.666 -105 159.999l-7 50l-7 37v84l1 21l6 19c20 59.333 68 89 144 89c63.333 0 107.333 -21.333 132 -64c8 -12.667 14.333 -34.334 19 -65.001l-1 -9l-1 -15c0 -28 6.33301 -51.333 19 -70c19.333 -28 51.666 -42 96.999 -42c52 0 89 28.667 111 86
c4.66699 14 10 43 16 87v1428c4 32 10 56 18 72c24 48 67 72 129 72c64 0 109 -24 135 -72c6.66699 -14 13 -38 19 -72v-1420v-90zM475.003 333.003c-4 -32.667 -10.334 -56.667 -19.001 -72c-26 -48 -72.333 -72 -139 -72c-58.667 0 -101 24 -127 72c-8 16 -14 40 -18 72
l-1 885c4 32 10 56 18 72c24 48 66.333 72 127 72c64 0 110 -24 138 -72c4.66699 -10.667 11.334 -34.667 20.001 -72z" />
    <glyph glyph-name="lamwithalefmaddaabovefinal" unicode="&#xfee0;&#xfe82;" horiz-adv-x="1155" arabic-form="final" 
d="M1155 0l-132.001 0.00195312v-84l-16 -96c-20 -72.667 -57.333 -132.334 -112 -179.001c-76.667 -64.667 -179 -97 -307 -97c-122.667 0 -219 28.667 -289 86c-50 40 -85 93.333 -105 160l-15 87v84l1 21l6 19c20 59.333 68.333 89 145 89
c60.667 0 104.334 -21.333 131.001 -64c8 -12.667 14.333 -34.334 19 -65.001l-1 -9l-1 -15c0 -28 6.33301 -51.333 19 -70c19.333 -28 51.666 -42 96.999 -42c50.667 0 87.334 28.667 110.001 86c4.66699 14 10 43 16 87v1428c4 32 10 56 18 72c24 48 67.333 72 130 72
c64 0 109 -24 135 -72c6.66699 -14 13 -38 19 -72v-1137h132v-289zM544.999 1527c0 -12 -5.99902 -20.667 -17.999 -26l-8 -4l-12 -1l-38 2l-32 1h-40l-32 -4l-132 -10l-59 1h-16l-24 1c-10.667 1.33301 -18 4 -22 8c-8 6 -12 15.333 -12 28c0 13.333 7.33301 22.333 22 27
l12 2l29 -5l36 -2c21.333 0 72.666 4.33301 153.999 13c39.333 4 69 6 89 6l43 -1c8 0 13.333 -0.666992 16 -2l15 -4c5.33301 0 9 -0.666992 11 -2c12 -6 18 -15.333 18 -28zM475 332.002c-4 -32.667 -10.334 -56.667 -19.001 -72c-26 -48 -72.333 -72 -139 -72
c-58.667 0 -101 24 -127 72c-8 16 -14 40 -18 72l-1 885c4 32 10 56 18 72c24 48 66.333 72 127 72c64 0 110 -24 138 -72c4.66699 -10.667 11.334 -34.667 20.001 -72z" />
    <glyph glyph-name="lamwithalefhamzaaboveisolatedd" unicode="&#xfedf;&#xfe84;" horiz-adv-x="1141" arabic-form="isolated" 
d="M1041 -84l-15.999 -95.999c-21.333 -74.667 -59 -134.667 -113 -180c-76.667 -64.667 -179.334 -97 -308.001 -97c-122.667 0 -219 28.667 -289 86c-48 38.667 -82.667 92 -104 160l-7 50l-7 37v84c4 28 10 49 18 63c25.333 42.667 69.333 64 132 64
c62 0 106 -21 132 -63c6.66699 -12 13 -33.333 19 -64l-1 -9l-1 -15c0 -28 6.33301 -51.667 19 -71c19.333 -28 51.666 -42 96.999 -42c52 0 89 29 111 87c4.66699 15.333 10 44.666 16 87.999v1426c4 32 10 56 18 72c24 48 67 72 129 72c64 0 109 -24 135 -72
c4.66699 -10.667 11.334 -34.667 20.001 -72v-1419v-89zM502.001 330.001c-4 -32.667 -10.333 -56.666 -19 -71.999c-26.667 -48.667 -73 -73 -139 -73c-58.667 0 -101 24 -127 72c-8 16 -14 40.333 -18 73l2 514c4 30 10 53.667 18 71c24 48 66.333 72 127 72
c66.667 0 112.667 -23.667 138 -71c2.66699 -6 5.66699 -15.333 9 -28l11 -44.001zM620.001 1163c0 -34 -12.667 -57.666 -38 -70.999l-38 -10h-362l-25 4c-38 11.333 -57 37 -57 77c0 28 14 49.667 42 65l42 10l-11 25c-8 21.333 -12 39.666 -12 54.999l1 27v12.5
c0 3.66699 1.33301 9.5 4 17.5c0 7.33301 1.66699 15.333 5 24l9 25l10 19c17.333 30.667 41.333 58 72 82c16 12 38 21.667 66 29l35 6l35 2l21 -1l15 -1l39 -12c27.333 -12 51 -28.333 71 -49c14 -15.333 28.667 -37 44 -65l15 -35l2 -18c0 -14.667 -2.66699 -27 -8 -37
c-8 -16 -21.667 -28 -41 -36c-12 -4 -22.667 -6 -32 -6c-18 0 -33.333 6.66699 -46 20l-14 21l-1 4c-2 9.33301 -5.66699 17.333 -11 24c-7.33301 16.667 -13 26.667 -17 30c-10 10 -26 15 -48 15c-24 0 -44 -10 -60 -30l-17 -30l-1 -10l-1 -14c0 -12.667 1 -23 3 -31
l12 -22c10.667 -16 26.667 -28.667 48 -38l13 -3l160 1c15.333 -2 28 -5 38 -9c25.333 -12 38 -34.333 38 -67z" />
    <glyph glyph-name="lamwithalefhamzaabovefinal" unicode="&#xfee0;&#xfe84;" horiz-adv-x="1174" arabic-form="final" 
d="M1174 0l-130.999 0.000976562v-84l-16 -96c-22 -74.667 -59.333 -134.667 -112 -180c-76.667 -64.667 -179 -97 -307 -97c-122 0 -218.667 28.667 -290 86c-50 40 -85.333 93.333 -106 160l-7 50l-7 37v84c4 28.667 10.333 49.667 19 63
c25.333 42.667 69.666 64 132.999 64c60 0 103.667 -21 131 -63c6.66699 -12 13 -33.333 19 -64l-1 -9l-1 -15c0 -28 6.33301 -51.667 19 -71c19.333 -28 51.666 -42 96.999 -42c50 0 86.667 29 110 87c4.66699 15.333 10 44.666 16 87.999v1426c4 32 10 56 18 72
c24 48 67.333 72 130 72c64 0 109 -24 135 -72c4.66699 -10.667 11.334 -34.667 20.001 -72v-1137h131v-287zM502.001 331.001c-4 -32.667 -10.333 -56.666 -19 -71.999c-26.667 -48.667 -73 -73 -139 -73c-58.667 0 -101 24 -127 72c-8 16 -14 40.333 -18 73l2 514
c4 30 10 53.667 18 71c24 48 66.333 72 127 72c66.667 0 112.667 -23.667 138 -71c2.66699 -6 5.66699 -15.333 9 -28l11 -44.001zM620.001 1164c0 -34 -12.667 -57.666 -38 -70.999l-38 -10h-362l-25 4c-38 11.333 -57 37 -57 77c0 28 14 49.667 42 65l42 10l-11 25
c-8 21.333 -12 39.666 -12 54.999l1 27v12.5c0 3.66699 1.33301 9.5 4 17.5c0 7.33301 1.66699 15.333 5 24l9 25l10 19c17.333 30.667 41.333 58 72 82c16 12 38 21.667 66 29l35 6l35 2l21 -1l15 -1l39 -12c27.333 -12 51 -28.333 71 -49c14 -15.333 28.667 -37 44 -65
l15 -35l2 -18c0 -14.667 -2.66699 -27 -8 -37c-8 -16 -21.667 -28 -41 -36c-12 -4 -22.667 -6 -32 -6c-18 0 -33.333 6.66699 -46 20l-14 21l-1 4c-2 9.33301 -5.66699 17.333 -11 24c-7.33301 16.667 -13 26.667 -17 30c-10 10 -26 15 -48 15c-24 0 -44 -10 -60 -30
l-17 -30l-1 -10l-1 -14c0 -12.667 1 -23 3 -31l12 -22c10.667 -16 26.667 -28.667 48 -38l13 -3l160 1c15.333 -2 28 -5 38 -9c25.333 -12 38 -34.333 38 -67z" />
    <glyph glyph-name="lamwithalefhamzabelowisolated" unicode="&#xfedf;&#xfe88;" horiz-adv-x="1135" arabic-form="isolated" 
d="M1035 -84l-15.999 -95.999c-20 -72 -57.667 -131.667 -113 -179c-76.667 -64.667 -179.334 -97 -308.001 -97c-122.667 0 -219 28.667 -289 86c-48 38.667 -82.667 92 -104 160l-7 50l-7 37v84l1 21l6 19c20 59.333 67.667 89 143 89c63.333 0 107.333 -21.333 132 -64
c8 -12.667 14.333 -34.334 19 -65.001l-1 -9l-1 -15c0 -28 6.33301 -51.333 19 -70c19.333 -28 51.666 -42 96.999 -42c52 0 89 28.667 111 86c4.66699 14 10 43 16 87v1428c4 32 10 56 18 72c24 48 67 72 129 72c64 0 109 -24 135 -72
c4.66699 -10.667 11.334 -34.667 20.001 -72v-1420v-90zM620.001 269.001c0 -34 -12.667 -57.666 -38 -70.999l-38 -10h-362l-25 4c-38 11.333 -57 37 -57 77c0 28 14 49.667 42 65l42 10l-11 25c-8 21.333 -12 39.666 -12 54.999l1 27v12.5c0 3.66699 1.33301 9.5 4 17.5
c0 7.33301 1.66699 15.333 5 24l9 25l10 19c17.333 30.667 41.333 58 72 82c16 12 38 21.667 66 29l35 6l35 2l21 -1l15 -1l39 -12c27.333 -12 51 -28.333 71 -49c14 -15.333 28.667 -37 44 -65l15 -35l2 -18c0 -14.667 -2.66699 -27 -8 -37c-8 -16 -21.667 -28 -41 -36
c-12 -4 -22.667 -6 -32 -6c-18 0 -33.333 6.66699 -46 20l-14 21l-1 4c-2 9.33301 -5.66699 17.333 -11 24c-7.33301 16.667 -13 26.667 -17 30c-10 10 -26 15 -48 15c-24 0 -44 -10 -60 -30l-17 -30l-1 -10l-1 -14c0 -12.667 1 -23 3 -31l12 -22
c10.667 -16 26.667 -28.667 48 -38l13 -3l160 1c15.333 -2 28 -5 38 -9c25.333 -12 38 -34.333 38 -67zM505.001 909.002c-4 -32.667 -10.333 -56.666 -19 -71.999c-26.667 -48.667 -73 -73 -139 -73c-58.667 0 -101 24 -127 72c-8 16 -14 40.333 -18 73l2 514
c4 30 10 53.667 18 71c24 48 66.333 72 127 72c66.667 0 112.667 -23.667 138 -71c2.66699 -6 5.66699 -15.333 9 -28l11 -44.001z" />
    <glyph glyph-name="lamwithalefhamzabelowfinal" unicode="&#xfee0;&#xfe88;" horiz-adv-x="1170" arabic-form="final" 
d="M1170 -7l-131.001 0.00195312v-84l-16 -96c-20 -72.667 -57.333 -132.334 -112 -179.001c-76.667 -64.667 -179.334 -97 -308.001 -97c-122 0 -218.667 28.667 -290 86c-50 40 -85.333 93.333 -106 160l-7 50l-7 37v84l1 21l6 19c20 59.333 68.333 89 145 89
c60.667 0 104.334 -21.333 131.001 -64c8 -12.667 14.333 -34.334 19 -65.001l-2 -9v-14c0 -28 6.33301 -51.667 19 -71c19.333 -28 52 -42 98 -42c52 0 88.333 28.667 109 86c4.66699 14 10 43 16 87v1428c4 32 10 56 18 72c24 48 67.333 72 130 72s108 -24 136 -72
c4.66699 -10.667 11.334 -34.667 20.001 -72v-1137h131v-289zM619.999 270.002c0 -34 -12.667 -57.666 -38 -70.999l-38 -10h-362l-25 4c-38 11.333 -57 37 -57 77c0 28 14 49.667 42 65l42 10l-11 25c-8 21.333 -12 39.666 -12 54.999l1 27v12.5
c0 3.66699 1.33301 9.5 4 17.5c0 7.33301 1.66699 15.333 5 24l9 25l10 19c17.333 30.667 41.333 58 72 82c16 12 38 21.667 66 29l35 6l35 2l21 -1l15 -1l39 -12c27.333 -12 51 -28.333 71 -49c14 -15.333 28.667 -37 44 -65l15 -35l2 -18c0 -14.667 -2.66699 -27 -8 -37
c-8 -16 -21.667 -28 -41 -36c-12 -4 -22.667 -6 -32 -6c-18 0 -33.333 6.66699 -46 20l-14 21l-1 4c-2 9.33301 -5.66699 17.333 -11 24c-7.33301 16.667 -13 26.667 -17 30c-10 10 -26 15 -48 15c-24 0 -44 -10 -60 -30l-17 -30l-1 -10l-1 -14c0 -12.667 1 -23 3 -31
l12 -22c10.667 -16 26.667 -28.667 48 -38l13 -3l160 1c15.333 -2 28 -5 38 -9c25.333 -12 38 -34.333 38 -67zM504.999 910.003c-4 -32.667 -10.333 -56.666 -19 -71.999c-26.667 -48.667 -73 -73 -139 -73c-58.667 0 -101 24 -127 72c-8 16 -14 40.333 -18 73l2 514
c4 30 10 53.667 18 71c24 48 66.333 72 127 72c66.667 0 112.667 -23.667 138 -71c2.66699 -6 5.66699 -15.333 9 -28l11 -44.001z" />
    <glyph glyph-name="lamwithalefisolated" unicode="&#xfedf;&#xfe8e;" horiz-adv-x="1047" arabic-form="isolated" 
d="M404 324c-4 -32.667 -10.334 -56.667 -19.001 -72c-26 -48 -72.333 -72 -139 -72c-58.667 0 -101 24 -127 72c-8 16 -14 40 -18 72l-1 1098c4 32 10 56 18 72c24 48 66.333 72 127 72c64 0 110 -24 138 -72c4.66699 -10.667 11.334 -34.667 20.001 -72zM946.999 -84
l-15.998 -95.9971c-20 -72.667 -57.333 -132.334 -112 -179.001c-76.667 -64.667 -179.334 -97 -308.001 -97c-122.667 0 -219 28.667 -289 86c-50 41.333 -85 94.666 -105 159.999l-7 50l-7 37v84l1 21l6 19c20 59.333 68 89 144 89c63.333 0 107.333 -21.333 132 -64
c8 -12.667 14.333 -34.334 19 -65.001l-1 -9l-1 -15c0 -28 6.33301 -51.333 19 -70c19.333 -28 51.666 -42 96.999 -42c52 0 89 28.667 111 86c4.66699 14 10 43 16 87v1428c4 32 10 56 18 72c24 48 67 72 129 72c64 0 109 -24 135 -72c6.66699 -14 13 -38 19 -72v-1420v-90
z" />
    <glyph glyph-name="lamwithaleffinal" unicode="&#xfee0;&#xfe8e;" horiz-adv-x="1076" arabic-form="final" 
d="M1076 -8l-131.001 0.00195312v-84l-16 -96c-20 -72.667 -57.333 -132.334 -112 -179.001c-76.667 -64.667 -179 -97 -307 -97c-122 0 -218.667 28.667 -290 86c-50 40 -85.333 93.333 -106 160l-7 50l-7 37v84l1 21l6 19c20 59.333 68.333 89 145 89
c63.333 0 107.333 -21.333 132 -64c8 -12.667 14.333 -34.334 19 -65.001l-1 -9l-1 -15c0 -28 6.33301 -51.667 19 -71c19.333 -27.333 51.333 -41 96 -41c52 0 89 28.667 111 86c4.66699 14 10 43 16 87v1428c4 32 10 56 18 72c24 48 67 72 129 72c64 0 109 -24 135 -72
c4.66699 -10.667 11.334 -34.667 20.001 -72v-1137h131v-289zM404.999 324.002c-4 -32.667 -10.334 -56.667 -19.001 -72c-26 -48 -72.333 -72 -139 -72c-58.667 0 -101 24 -127 72c-8 16 -14 40 -18 72l-1 1098c4 32 10 56 18 72c24 48 66.333 72 127 72
c64 0 110 -24 138 -72c4.66699 -10.667 11.334 -34.667 20.001 -72z" />
    <glyph glyph-name="hamzaisolated" unicode="&#x621;" horiz-adv-x="1172" arabic-form="isolated" 
d="M1072 150c0 -60 -24.001 -103.668 -72.001 -131.001c-14 -6.66699 -38.333 -13 -73 -19h-670c-34 4 -60 10 -78 18c-52.667 25.333 -79 69.333 -79 132c0 58 26 99 78 123c17.333 7.33301 43.666 13.333 78.999 18l-20 45c-13.333 36.667 -20 71.334 -20 104.001
c0 28 3 62.667 9 104l9 49l14 37c12.667 30 29.667 59.333 51 88c24.667 34.667 59.667 69.334 105 104.001c34.667 24.667 79 44 133 58c44.667 8.66699 85.334 13 122.001 13l39 -1l26 -3c30.667 -8 55 -16.333 73 -25c52.667 -22.667 96.334 -52.667 131.001 -90
c25.333 -27.333 52 -67.333 80 -120l28 -65l3 -17l2 -21c0 -26 -5.33301 -48.667 -16 -68c-14 -26.667 -39.667 -47.334 -77 -62.001l-31 -9l-28 -3c-33.333 0 -61.333 12.667 -84 38c-5.33301 5.33301 -13.666 18.333 -24.999 39l-5 15l-17 37c-14 28 -25 46 -33 54
c-20.667 18.667 -50.334 28 -89.001 28c-44.667 0 -82 -19 -112 -57c-8 -12 -18 -31 -30 -57l-2 -14l-3 -36l1 -25c0 -9.33301 1.33301 -18 4 -26l5 -15c3.33301 -7.33301 8.66602 -16.333 15.999 -27c18.667 -26.667 44.334 -47.334 77.001 -62.001l40 -10h294l42 -7
c12.667 -2 22.667 -5.33301 30 -10c48.667 -23.333 73 -64.666 73 -123.999z" />
    <glyph glyph-name="alefwithmaddaaboveisolated" unicode="&#x622;" horiz-adv-x="645" arabic-form="isolated" 
d="M483 -226c-4 -35.333 -10 -63 -18 -83c-24 -55.333 -68 -83 -132 -83s-108.667 22.667 -134 68c-6.66699 12 -13 35 -19 69v29l4 1458c4 34.667 10.333 60.667 19 78c26 52 71.333 78 136 78c60 0 103 -26 129 -78c6.66699 -14.667 13 -40.667 19 -78zM545 1523
c0 -12 -5.99902 -20.667 -17.999 -26l-8 -4l-12 -1l-38 2l-32 1h-40l-32 -4l-132 -10l-59 1h-16l-24 1c-10.667 1.33301 -18 4 -22 8c-8 6 -12 15.333 -12 28c0 13.333 7.33301 22.333 22 27l12 2l29 -5l36 -2c21.333 0 72.666 4.33301 153.999 13c39.333 4 69 6 89 6l43 -1
c8 0 13.333 -0.666992 16 -2l15 -4c5.33301 0 9 -0.666992 11 -2c12 -6 18 -15.333 18 -28z" />
    <glyph glyph-name="alefwithmaddaabovefinal" unicode="&#x622;" horiz-adv-x="685" arabic-form="final" 
d="M685 0l-213.999 0.000976562l-15 -1l-22 -1c-36 0 -68 3 -96 9c-40.667 9.33301 -73.334 25.166 -98.001 47.499s-43 60.833 -55 115.5l-7 49l-3 55v11v5l-4 947c0 47.333 14 86.333 42 117s67.333 46 118 46c44 0 78.333 -16.333 103 -49c22 -29.333 33 -67.333 33 -114
l4 -890l3 -25c2.66699 -8 6.5 -14.833 11.5 -20.5s13.167 -9.5 24.5 -11.5l27 -1h148v-289zM545.001 1527c0 -12 -5.99902 -20.667 -17.999 -26l-8 -4l-12 -1l-38 2l-32 1h-40l-32 -4l-132 -10l-59 1h-16l-24 1c-10.667 1.33301 -18 4 -22 8c-8 6 -12 15.333 -12 28
c0 13.333 7.33301 22.333 22 27l12 2l29 -5l36 -2c21.333 0 72.666 4.33301 153.999 13c39.333 4 69 6 89 6l43 -1c8 0 13.333 -0.666992 16 -2l15 -4c5.33301 0 9 -0.666992 11 -2c12 -6 18 -15.333 18 -28z" />
    <glyph glyph-name="alefwithhamzaaboveisolated" unicode="&#x623;" horiz-adv-x="720" arabic-form="isolated" 
d="M516 -225c-4 -35.333 -10 -63 -18 -83c-24 -55.333 -68 -83 -132 -83s-108.667 22.667 -134 68c-6.66699 12 -13 35 -19 69v29l-2 1137c4 34.667 10.333 60.667 19 78c26 52 71.333 78 136 78c60 0 103 -26 129 -78c6.66699 -14.667 13 -40.667 19 -78zM620 1201
c0 -34 -12.667 -57.666 -38 -70.999l-38 -10h-362l-25 4c-38 11.333 -57 37 -57 77c0 28 14 49.667 42 65l42 10l-11 25c-8 21.333 -12 39.666 -12 54.999l1 27v12.5c0 3.66699 1.33301 9.5 4 17.5c0 7.33301 1.66699 15.333 5 24l9 25l10 19c17.333 30.667 41.333 58 72 82
c16 12 38 21.667 66 29l35 6l35 2l21 -1l15 -1l39 -12c27.333 -12 51 -28.333 71 -49c14 -15.333 28.667 -37 44 -65l15 -35l2 -18c0 -14.667 -2.66699 -27 -8 -37c-8 -16 -21.667 -28 -41 -36c-12 -4 -22.667 -6 -32 -6c-18 0 -33.333 6.66699 -46 20l-14 21l-1 4
c-2 9.33301 -5.66699 17.333 -11 24c-7.33301 16.667 -13 26.667 -17 30c-10 10 -26 15 -48 15c-24 0 -44 -10 -60 -30l-17 -30l-1 -10l-1 -14c0 -12.667 1 -23 3 -31l12 -22c10.667 -16 26.667 -28.667 48 -38l13 -3l160 1c15.333 -2 28 -5 38 -9
c25.333 -12 38 -34.333 38 -67z" />
    <glyph glyph-name="alefwithhamzaabovefinal" unicode="&#x623;" horiz-adv-x="700" arabic-form="final" 
d="M700 0l-214 -0.000976562h-105l-13 1l-21 5l-26 8l-15 7c-10 2 -18.333 5.66699 -25 11l-25 18c-28 26 -48 66 -60 120l-7 48l-3 54v10v661l1 20l6 20c20 59.333 67 89 141 89c62 0 106.667 -18 134 -54c8 -12 14 -30.333 18 -55v-614v-19
c2 -13.333 6.33301 -23.666 13 -30.999c6 -4 14 -7 24 -9l27 -1h150v-289zM620 1210c0 -34 -12.667 -57.666 -38 -70.999l-38 -10h-362l-25 4c-38 11.333 -57 37 -57 77c0 28 14 49.667 42 65l42 10l-11 25c-8 21.333 -12 39.666 -12 54.999l1 27v12.5
c0 3.66699 1.33301 9.5 4 17.5c0 7.33301 1.66699 15.333 5 24l9 25l10 19c17.333 30.667 41.333 58 72 82c16 12 38 21.667 66 29l35 6l35 2l21 -1l15 -1l39 -12c27.333 -12 51 -28.333 71 -49c14 -15.333 28.667 -37 44 -65l15 -35l2 -18c0 -14.667 -2.66699 -27 -8 -37
c-8 -16 -21.667 -28 -41 -36c-12 -4 -22.667 -6 -32 -6c-18 0 -33.333 6.66699 -46 20l-14 21l-1 4c-2 9.33301 -5.66699 17.333 -11 24c-7.33301 16.667 -13 26.667 -17 30c-10 10 -26 15 -48 15c-24 0 -44 -10 -60 -30l-17 -30l-1 -10l-1 -14c0 -12.667 1 -23 3 -31
l12 -22c10.667 -16 26.667 -28.667 48 -38l13 -3l160 1c15.333 -2 28 -5 38 -9c25.333 -12 38 -34.333 38 -67z" />
    <glyph glyph-name="wawwithhamzaaboveisolated" unicode="&#x624;" horiz-adv-x="1045" arabic-form="isolated" 
d="M793 1083c0 -36.667 -12.6689 -59.3301 -38.002 -67.9971l-40 -11h-360l-43 11c-28 5.33301 -42 28 -42 68c0 35.333 14 57.666 42 66.999l43 10l-10 25c-6 16 -10 34.333 -12 55v29l3 27l6 27l19 41c12 28.667 35.5 55.667 70.5 81s73.167 38 114.5 38l61 -2l39 -14
c24 -8 47.333 -23.333 70 -46l26 -34c5.33301 -6.66699 11 -17.334 17 -32.001l16 -35v-36c0 -22 -16 -40 -48 -54l-19 -6l-18 -2c-11.333 0 -22.666 5 -33.999 15l-20 28l-3 8l-9 19l-6 12c-0.666992 3.33301 -4.66699 9.66602 -12 18.999s-23 14 -47 14
c-27.333 0 -47.666 -10 -60.999 -30l-15 -31l-4 -27c-2 -16 3 -33.333 15 -52c12 -16 25.667 -26.333 41 -31l22 -6h158l40 -10c25.333 -6 38 -28.333 38 -67zM944.998 405.004c0 -36.667 -5.33105 -71.3311 -15.998 -103.998s-23.334 -61.334 -38.001 -86.001l-216 -386
l-48 -82l-41 -73l-14 -20l-16 -19l-11 -8c-16.667 -12 -39.334 -22.667 -68.001 -32l-21 -3c-22 0 -46.333 8.33301 -73 25c-37.333 22 -56 48 -56 78v35l1 21l7 18l10 23c4 9.33301 8.33301 16.666 13 21.999l33 59l66 112l-5 1c-92 17.333 -164.667 51 -218 101
c-28.667 26.667 -51.667 54.5 -69 83.5s-32.5 64.333 -45.5 106s-19.5 83.5 -19.5 125.5l3 53c0.666992 6.66699 2 15 4 25s4.33301 19.667 7 29c22 88 71 162 147 222s163.333 90 262 90c56.667 0 110 -10 160 -30s95.667 -50.667 137 -92
c83.333 -81.333 125 -179.333 125 -294zM652 403.007c0 36 -13.166 67.667 -39.499 95s-58.833 41 -97.5 41c-38 0 -70.5 -13.333 -97.5 -40s-40.5 -58.667 -40.5 -96c0 -36.667 13.167 -68.5 39.5 -95.5s59.166 -40.5 98.499 -40.5c36.667 0 68.667 13 96 39
s41 58.333 41 97z" />
    <glyph glyph-name="wawwithhamzaabovefinal" unicode="&#x624;" horiz-adv-x="1057" arabic-form="final" 
d="M792 1096c0 -38 -12.667 -61.332 -38 -69.999l-39 -10h-361l-42 10c-27.333 6 -41 29.333 -41 70c0 38 13.667 60 41 66l43 11l-10 24l-7 21l-4 22l-2 30l1 18l4 20l6 26l18 42c12 27.333 36.667 54.666 74 81.999c32 24 69 36 111 36l61 -1l39 -13
c26.667 -9.33301 49.667 -25 69 -47c20 -20 35 -42 45 -66l15 -34v-36c0 -24 -15.667 -42.333 -47 -55c-15.333 -6 -28 -9 -38 -9c-14.667 0 -25.667 5.66699 -33 17l-21 28l-3 7l-8 19l-8 15l-10 15c-8 10 -24 15 -48 15c-30 0 -50.333 -10.333 -61 -31l-16 -30l-3 -27
c0 -18.667 5.5 -36.167 16.5 -52.5s24.167 -26.5 39.5 -30.5l22 -5h158l39 -11c25.333 -5.33301 38 -27.333 38 -66zM1057 290.001l-1.00098 -290h-293l-88 -158l-76 -136l-6 -9l-5 -9c-12.667 -19.333 -26.667 -35.666 -42 -48.999l-30 -18l-38 -13l-22 -3
c-19.333 0 -43.666 8 -72.999 24c-36.667 21.333 -55 47.333 -55 78l1 45l6 29l10 23l13 22l33 59l66 113h-4c-92.667 16 -165.667 49.167 -219 99.5s-91.333 113.166 -114 188.499c-6.66699 23.333 -11.667 45 -15 65s-5 41 -5 63l3 53c0.666992 6.66699 2 15 4 25
s4.33301 19.667 7 29c23.333 89.333 73 163.833 149 223.5s162.667 89.5 260 89.5c113.333 0 212 -40.833 296 -122.5s126 -179.5 126 -293.5c0 -47.333 -8.33301 -90 -25 -128h137zM652.999 414.001c0 37.333 -13.168 69.5 -39.501 96.5s-59.166 40.5 -98.499 40.5
c-38 0 -70.667 -13.167 -98 -39.5s-41 -58.833 -41 -97.5c0 -36.667 13.833 -68.5 41.5 -95.5s60.167 -40.5 97.5 -40.5c36 0 68 13 96 39s42 58.333 42 97z" />
    <glyph glyph-name="alefwithhamzabelowisolated" unicode="&#x625;" horiz-adv-x="720" arabic-form="isolated" 
d="M506 218c-4 -35.333 -10 -63 -18 -83c-24 -55.333 -68 -83 -132 -83s-108.667 22.667 -134 68c-6.66699 12 -13 35 -19 69v29l3 1199c4 34.667 10.333 60.667 19 78c26 52 71.333 78 136 78c60 0 103 -26 129 -78c6.66699 -14.667 13 -40.667 19 -78zM620 -417
c0 -34 -12.667 -57.666 -38 -70.999l-38 -10h-362l-25 4c-38 11.333 -57 37 -57 77c0 28 14 49.667 42 65l42 10l-11 25c-8 21.333 -12 39.666 -12 54.999l1 27v12.5c0 3.66699 1.33301 9.5 4 17.5c0 7.33301 1.66699 15.333 5 24l9 25l10 19c17.333 30.667 41.333 58 72 82
c16 12 38 21.667 66 29l35 6l35 2l21 -1l15 -1l39 -12c27.333 -12 51 -28.333 71 -49c14 -15.333 28.667 -37 44 -65l15 -35l2 -18c0 -14.667 -2.66699 -27 -8 -37c-8 -16 -21.667 -28 -41 -36c-12 -4 -22.667 -6 -32 -6c-18 0 -33.333 6.66699 -46 20l-14 21l-1 4
c-2 9.33301 -5.66699 17.333 -11 24c-7.33301 16.667 -13 26.667 -17 30c-10 10 -26 15 -48 15c-24 0 -44 -10 -60 -30l-17 -30l-1 -10l-1 -14c0 -12.667 1 -23 3 -31l12 -22c10.667 -16 26.667 -28.667 48 -38l13 -3l160 1c15.333 -2 28 -5 38 -9
c25.333 -12 38 -34.333 38 -67z" />
    <glyph glyph-name="alefwithhamzabelowfinal" unicode="&#x625;" horiz-adv-x="679" arabic-form="final" 
d="M679 0l-214.001 -0.000976562h-12l-18 -1c-34 0 -66.667 3 -98 9c-43.333 8.66699 -77.166 24.5 -101.499 47.5s-43.166 60.167 -56.499 111.5l-8 48l-3 56v13l1 9v1125c0 50.667 13.667 92.834 41 126.501s66.333 50.5 117 50.5s89 -20 115 -60
c19.333 -32.667 29 -75.667 29 -129v-1056l1 -26c0 -8 3.16699 -15.167 9.5 -21.5s15.166 -10.5 26.499 -12.5l27 -1h144v-289zM619.999 -417.001c0 -34 -12.667 -57.666 -38 -70.999l-38 -10h-362l-25 4c-38 11.333 -57 37 -57 77c0 28 14 49.667 42 65l42 10l-11 25
c-8 21.333 -12 39.666 -12 54.999l1 27v12.5c0 3.66699 1.33301 9.5 4 17.5c0 7.33301 1.66699 15.333 5 24l9 25l10 19c17.333 30.667 41.333 58 72 82c16 12 38 21.667 66 29l35 6l35 2l21 -1l15 -1l39 -12c27.333 -12 51 -28.333 71 -49c14 -15.333 28.667 -37 44 -65
l15 -35l2 -18c0 -14.667 -2.66699 -27 -8 -37c-8 -16 -21.667 -28 -41 -36c-12 -4 -22.667 -6 -32 -6c-18 0 -33.333 6.66699 -46 20l-14 21l-1 4c-2 9.33301 -5.66699 17.333 -11 24c-7.33301 16.667 -13 26.667 -17 30c-10 10 -26 15 -48 15c-24 0 -44 -10 -60 -30
l-17 -30l-1 -10l-1 -14c0 -12.667 1 -23 3 -31l12 -22c10.667 -16 26.667 -28.667 48 -38l13 -3l160 1c15.333 -2 28 -5 38 -9c25.333 -12 38 -34.333 38 -67z" />
    <glyph glyph-name="yehwithhamzaaboveisolated" unicode="&#x626;" horiz-adv-x="1948" arabic-form="isolated" 
d="M795 1178c0 -33.333 -12.668 -56.332 -38.001 -68.999c-4.66699 -2.66699 -17.667 -6 -39 -10h-363c-16 2 -29.667 5 -41 9c-27.333 13.333 -41 36.666 -41 69.999c0 31.333 13.667 53.333 41 66c6.66699 4 20.334 7.33301 41.001 10l-11 24
c-7.33301 20.667 -11 39.334 -11 56.001l1 25v18c2 6 3.33301 10.333 4 13c0 9.33301 1.66699 18.333 5 27c6 16 12.333 29.667 19 41c16.667 30 41 57.667 73 83c17.333 14 38 23.333 62 28l34 5l37 2l28 -1l11 -1l39 -12c29.333 -12 53.333 -28 72 -48
c14.667 -16.667 28.667 -38.334 42 -65.001l15 -35l1 -8l1 -12c0 -16.667 -2.66699 -29 -8 -37c-8 -14.667 -21.667 -25.667 -41 -33c-12 -4 -22.667 -6 -32 -6c-18 0 -33.333 6.66699 -46 20l-14 21l-3 11l-7 16l-18 29c-10 10 -26.333 15 -49 15c-24 0 -44 -10 -60 -30
l-16 -30l-2 -14v-11c0 -14 0.666992 -23.667 2 -29l12 -23c10 -15.333 23.667 -26.333 41 -33l22 -6h158c10 0 18 -1 24 -3c36.667 -10 55 -34.333 55 -73zM1819 875.001l13.999 -22c10 -19.333 15 -38.333 15 -57c0 -17.333 -4.16699 -34.833 -12.5 -52.5
s-23.166 -35.167 -44.499 -52.5c-16 -14 -32 -24 -48 -30l-22 -6l-24 -2c-22 0 -44 6 -66 18l-25 19l-151 150l-29 20c-24.667 13.333 -48.334 20 -71.001 20c-16 0 -30.5 -2.5 -43.5 -7.5s-25.833 -13.833 -38.5 -26.5s-23 -27 -31 -43c-5.33301 -14.667 -8 -28.667 -8 -42
c0 -18 6 -38.667 18 -62l18 -24l465 -459l18 -30c12 -24 18 -47.667 18 -71c0 -12.667 -0.666992 -22 -2 -28s-4 -12 -8 -18c-16 -32 -45 -53 -87 -63l-29 -5l-30 -1h-1097c-32 0 -68 5 -108 15c-82 21.333 -149 59.333 -201 114c-72.667 76.667 -109 180.667 -109 312
c0 114 36 205 108 273c49.333 46 116.333 79.667 201 101c42 10 78.333 15 109 15h36c10 0 17.333 -0.666992 22 -2l20 -5c61.333 -19.333 92 -65 92 -137c0 -57.333 -22.333 -98.333 -67 -123c-12 -6.66699 -34.333 -13 -67 -19l-18 1c-34 0 -62.667 -6.33301 -86 -19
c-36.667 -20.667 -55 -55.667 -55 -105c0 -52 18 -89 54 -111c23.333 -14 52.333 -21 87 -21h10l8 1h696l-201 196c-24 29.333 -42 54.333 -54 75c-16.667 30 -30 62 -40 96s-15 67 -15 99c0 51.333 9.66699 98.333 29 141c23.333 56 60 108 110 156
c43.333 42 91 74.667 143 98c43.333 18 88.333 27 135 27c51.333 0 103 -11.333 155 -34c34.667 -16 70.334 -37.333 107.001 -64l41 -35z" />
    <glyph glyph-name="yehwithhamzaabovefinal" unicode="&#x626;" horiz-adv-x="2510" arabic-form="final" 
d="M2510 0l-127.002 -0.00195312h-18c-15.333 0 -28.333 1.33301 -39 4l-38 16c-19.333 8 -38.666 19.333 -58 34l-13 10l-11 12l-752 766l-28 19c-24.667 13.333 -47.667 20 -69 20c-10.667 0 -18.5 -0.333008 -23.5 -1s-11.5 -3 -19.5 -7
c-11.333 -4 -24.666 -13 -39.999 -27s-25.666 -28.167 -30.999 -42.5s-8 -28.166 -8 -41.499c0 -18.667 6 -39 18 -61l18 -24l464 -461l18 -30c12 -24 18 -47 18 -69c0 -17.333 -3.66699 -33 -11 -47c-13.333 -29.333 -42.333 -50 -87 -62l-29 -5l-30 -1h-1093
c-32.667 0 -69 5 -109 15c-80 20 -147.667 58 -203 114c-72.667 76.667 -109 180.334 -109 311.001c0 114 36 205 108 273c48.667 45.333 115.667 78.666 201 99.999c42 10 78.333 15 109 15h36c29.333 -4 51.333 -10 66 -18c44 -24 66 -66 66 -126
c0 -56 -22.333 -96.333 -67 -121c-12 -5.33301 -34.667 -11.666 -68 -18.999l-17 1c-34.667 0 -63.667 -6.33301 -87 -19c-37.333 -20 -56 -55.333 -56 -106c0 -40 12 -72.667 36 -98c24.667 -23.333 59.667 -35 105 -35h9l7 1h695l-201 196
c-24.667 30.667 -42.667 56 -54 76c-16.667 29.333 -30 61 -40 95s-15 67 -15 99c0 50.667 10 100 30 148s56.667 97.667 110 149c42 42 89.333 74.667 142 98c43.333 18 88.333 27 135 27c70 0 141.667 -22 215 -66c22 -12.667 50.667 -35 86 -67l692 -707l6 -5l34 -24
l31 -14c12 -4 22.667 -6 32 -6h64v-289zM709.998 1180c0 -30 -13 -52.667 -39 -68c-4.66699 -2.66699 -17.667 -6 -39 -10h-362c-17.333 2 -31.666 5 -42.999 9c-28.667 12 -43 35 -43 69c0 30.667 14 53 42 67l42 10l-10 24c-6 15.333 -10.667 34 -14 56v20l4 36l4 26l9 24
c18 38 45.333 71.333 82 100c16 12 36.833 21 62.5 27s48.834 9 69.501 9l23 -1c9.33301 0 15.666 -0.666992 18.999 -2l19 -5c34 -11.333 62.667 -29.333 86 -54c16.667 -18.667 30.667 -40.334 42 -65.001l15 -35l2 -11l1 -10c0 -12 -3.5 -24.5 -10.5 -37.5
s-20.167 -23.833 -39.5 -32.5c-11.333 -4 -21.333 -6 -30 -6c-16.667 0 -32 7 -46 21l-14 21l-13 26c-8 16 -14.333 26.333 -19 31c-10.667 9.33301 -27 14 -49 14c-23.333 0 -44 -10 -62 -30l-16 -30l-3 -13l-1 -18c0 -11.333 1 -20.666 3 -27.999l10 -19
c11.333 -16 24.666 -27 39.999 -33l22 -5h157h21c17.333 -2 30.333 -5 39 -9c26 -12 39 -34.667 39 -68z" />
    <glyph glyph-name="yehwithhamzaaboveinitial" unicode="&#x626;" horiz-adv-x="737" arabic-form="initial" 
d="M637 1181c0 -33.333 -12.667 -56.333 -38 -69c-4.66699 -2.66699 -17.667 -6 -39 -10h-361c-18 2 -32 5 -42 9c-28 13.333 -42 36.666 -42 69.999c0 30.667 14 53 42 67l42 10l-10 24c-7.33301 20.667 -11 39.334 -11 56.001l1 25v18c2 6 3.33301 10.333 4 13
c0 9.33301 1.66699 18.333 5 27l9 24c18.667 38.667 46.334 71.667 83.001 99c16 12 36.667 21.667 62 29l33 6l37 2l30 -1c4.66699 0 7.66699 -0.666992 9 -2l23 -6c34 -11.333 62.667 -29.333 86 -54c15.333 -17.333 32 -43.333 50 -78l8 -22l2 -11l1 -10
c0 -12.667 -3 -25 -9 -37c-8 -14.667 -21.667 -25.667 -41 -33c-12 -4 -22.667 -6 -32 -6c-16 0 -31 7 -45 21l-14 21l-3 10l-9 17c-8 18.667 -13.667 28.667 -17 30c-10 10 -26.333 15 -49 15c-24 0 -44 -10 -60 -30l-16 -31l-1 -10l-1 -14
c0 -15.333 0.666992 -25.333 2 -30l12 -24c11.333 -16 24.666 -27 39.999 -33l22 -5h160c15.333 -2 28 -5 38 -9c26 -12 39 -34.667 39 -68zM559 202c0 -10.667 -0.666016 -20.334 -1.99902 -29.001s-3 -15.667 -5 -21c-10 -38 -27.167 -69.167 -51.5 -93.5
s-55.5 -41.5 -93.5 -51.5l-50 -7h-357v289h205c12.667 0 22.167 0.666992 28.5 2s13.166 5.83301 20.499 13.5s12.333 17.834 15 30.501l2 19v339c4 30.667 10 55 18 73c24.667 48.667 66.667 73 126 73c60 0 102 -24.333 126 -73c7.33301 -16 13.333 -40.333 18 -73v-491z
" />
    <glyph glyph-name="yehwithhamzaabovemedial" unicode="&#x626;" horiz-adv-x="740" arabic-form="medial" 
d="M644 1178c0 -34 -12.667 -57.666 -38 -70.999l-38 -10h-362l-25 4c-38 11.333 -57 37 -57 77c0 28 14 49.667 42 65l42 10l-11 25c-8 21.333 -12 39.666 -12 54.999l1 27v12.5c0 3.66699 1.33301 9.5 4 17.5c0 7.33301 1.66699 15.333 5 24l9 25l10 19
c17.333 30.667 41.333 58 72 82c16 12 38 21.667 66 29l35 6l35 2l21 -1l15 -1l39 -12c27.333 -12 51 -28.333 71 -49c14 -15.333 28.667 -37 44 -65l15 -35l2 -18c0 -14.667 -2.66699 -27 -8 -37c-8 -16 -21.667 -28 -41 -36c-12 -4 -22.667 -6 -32 -6
c-18 0 -33.333 6.66699 -46 20l-14 21l-1 4c-2 9.33301 -5.66699 17.333 -11 24c-7.33301 16.667 -13 26.667 -17 30c-10 10 -26 15 -48 15c-24 0 -44 -10 -60 -30l-17 -30l-1 -10l-1 -14c0 -12.667 1 -23 3 -31l12 -22c10.667 -16 26.667 -28.667 48 -38l13 -3l160 1
c15.333 -2 28 -5 38 -9c25.333 -12 38 -34.333 38 -67zM740 0.000976562l-178.001 -0.000976562v180c-4 -22 -9 -41 -15 -57c-10 -25.333 -24.333 -47.666 -43 -66.999c-24 -22 -54.667 -38.333 -92 -49l-49 -7h-363v289h209c12.667 0 21.667 0.666992 27 2
c8 0.666992 15.333 5 22 13c7.33301 6 12.333 16.333 15 31l2 19v339l6 37c2 12.667 6.33301 24.667 13 36c24.667 48.667 66 73 124 73c58.667 0 101.334 -24.333 128.001 -73c8 -16 14 -40.333 18 -73v-404h176v-289z" />
    <glyph glyph-name="alefisolated" unicode="&#x627;" horiz-adv-x="503" arabic-form="isolated" 
d="M403 -226c-4 -35.333 -10 -63 -18 -83c-24 -55.333 -68 -83 -132 -83s-108.667 22.667 -134 68c-6.66699 12 -13 35 -19 69v29v1637c4 34.667 10.333 60.667 19 78c26 52 71.333 78 136 78c60 0 103 -26 129 -78c6.66699 -14.667 13 -40.667 19 -78v-1637z" />
    <glyph glyph-name="aleffinal" unicode="&#x627;" horiz-adv-x="611" arabic-form="final" 
d="M611 0h-213h-12l-18 -1c-34 0 -66.667 3 -98 9c-43.333 8.66699 -77.5 24.667 -102.5 48s-43.833 60.333 -56.5 111l-8 48l-3 56v13l1 9v1125c0 50 13.667 92 41 126s67 51 119 51c49.333 0 87 -20 113 -60c19.333 -32.667 29 -75.667 29 -129v-1056l1 -26
c0 -6 4 -13.667 12 -23c4.66699 -4 13 -7.66699 25 -11l26 -1h144v-289z" />
    <glyph glyph-name="behisolated" unicode="&#x628;" horiz-adv-x="2058" arabic-form="isolated" 
d="M1893 60c-20 -20 -42.667 -35.334 -68 -46.001c-4.66699 -2 -12.334 -4 -23.001 -6c-23.333 -5.33301 -35.666 -8 -36.999 -8h-1244c-30.667 0 -67 5 -109 15c-81.333 20 -149 56.333 -203 109c-72.667 72.667 -109 171.334 -109 296.001c0 122.667 36 221 108 295
c50 50 117.333 86 202 108c46.667 10.667 83 16 109 16h633c32 -4 56 -10 72 -18c48.667 -24.667 73 -66.667 73 -126c0 -58.667 -24 -101 -72 -127c-16 -8 -40.333 -14 -73 -18h-615c-19.333 -2 -35.666 -4.33301 -48.999 -7s-24 -6 -32 -10c-54 -23.333 -81 -64 -81 -122
c0 -50 27 -86 81 -108c14 -4 41 -9.33301 81 -16h1064c10 0 16 0.666992 18 2c11.333 2 21.666 7 30.999 15c6 4 10.333 9.66699 13 17l6 30v343c4 32 10 56 18 72c24.667 48.667 66.667 73 126 73c60 0 102.333 -24.333 127 -73c8 -16 14 -40.333 18 -73v-406v-90
c0 -12 -1.16699 -23 -3.5 -33s-5.83301 -19.667 -10.5 -29c-10 -26 -27 -51 -51 -75zM1293 -306.001c0 -42.667 -14.167 -78.834 -42.5 -108.501s-64.166 -44.5 -107.499 -44.5c-40.667 0 -76.5 15.333 -107.5 46s-46.5 66.334 -46.5 107.001c0 42 15.167 77.833 45.5 107.5
s66.5 44.5 108.5 44.5c41.333 0 76.666 -15.167 105.999 -45.5s44 -65.833 44 -106.5z" />
    <glyph glyph-name="behfinal" unicode="&#x628;" horiz-adv-x="2165" arabic-form="final" 
d="M2165 0h-207.001v195l-3 -24c-8 -39.333 -28.333 -76.333 -61 -111c-26 -26 -55.667 -44.333 -89 -55l-40 -7h-1244c-30.667 0 -67 5 -109 15c-84 20 -151.667 55.667 -203 107c-72.667 72.667 -109 171 -109 295c0 122.667 36 221 108 295c50 51.333 117 87.333 201 108
c46.667 10.667 83 16 109 16h635c32 -4 56 -10 72 -18c48.667 -24.667 73 -66.667 73 -126c0 -60 -24.333 -102 -73 -126c-16 -8 -40.333 -14 -73 -18h-615c-19.333 -2 -35.666 -4.33301 -48.999 -7s-24 -6 -32 -10c-54 -22 -81 -62.333 -81 -121
c0 -52 26.667 -88.333 80 -109c14.667 -4.66699 41.334 -10 80.001 -16h1065c10 0 16 0.666992 18 2c13.333 2 23.666 6.66699 30.999 14c7.33301 6 12.333 15.667 15 29l2 19v343c0 18 2.33301 33 7 45c20 66 66.333 99 139 99c60 0 102 -24.333 126 -73
c8 -16 14 -40.333 18 -73v-399h209v-289zM1298 -306c0 -42.667 -14.167 -78.834 -42.5 -108.501s-64.166 -44.5 -107.499 -44.5c-40.667 0 -76.5 15.333 -107.5 46s-46.5 66.334 -46.5 107.001c0 42 15.167 77.833 45.5 107.5s66.5 44.5 108.5 44.5
c41.333 0 76.666 -15.167 105.999 -45.5s44 -65.833 44 -106.5z" />
    <glyph glyph-name="behinitial" unicode="&#x628;" horiz-adv-x="659" arabic-form="initial" 
d="M559 202c0 -10.667 -0.666016 -20.334 -1.99902 -29.001s-3 -15.667 -5 -21c-10 -38 -27.167 -69.167 -51.5 -93.5s-55.5 -41.5 -93.5 -51.5l-50 -7h-357v289h205c12.667 0 22.167 0.666992 28.5 2s13.166 5.83301 20.499 13.5s12.333 17.834 15 30.501l2 19v339
c4 30.667 10 55 18 73c24.667 48.667 66.667 73 126 73c60 0 102 -24.333 126 -73c7.33301 -16 13.333 -40.333 18 -73v-491zM432.001 -306c0 -42.667 -14.167 -78.834 -42.5 -108.501s-64.166 -44.5 -107.499 -44.5c-40.667 0 -76.5 15.333 -107.5 46
s-46.5 66.334 -46.5 107.001c0 39.333 15 74.5 45 105.5s66.333 46.5 109 46.5c41.333 0 76.666 -15.167 105.999 -45.5s44 -65.833 44 -106.5z" />
    <glyph glyph-name="behmedial" unicode="&#x628;" horiz-adv-x="740" arabic-form="medial" 
d="M740 0l-178.001 -0.000976562v180c-4 -22 -9 -41 -15 -57c-10 -25.333 -24.333 -47.666 -43 -66.999c-24 -22 -54.667 -38.333 -92 -49l-49 -7h-363v289h209c12.667 0 21.667 0.666992 27 2c8 0.666992 15.333 5 22 13c7.33301 6 12.333 16.333 15 31l2 19v339l6 37
c2 12.667 6.33301 24.667 13 36c24.667 48.667 66 73 124 73c58.667 0 101.334 -24.333 128.001 -73c8 -16 14 -40.333 18 -73v-404h176v-289zM510.999 -306.001c0 -42.667 -14.666 -78.833 -43.999 -108.5s-65 -44.5 -107 -44.5s-78 15 -108 45s-45 66 -45 108
c0 39.333 15.167 74.5 45.5 105.5s66.166 46.5 107.499 46.5c42 0 77.667 -14.667 107 -44s44 -65.333 44 -108z" />
    <glyph glyph-name="tehmarbutaisolated" unicode="&#x629;" horiz-adv-x="1050" arabic-form="isolated" 
d="M526 857c58.667 0 113.332 -11.6631 163.999 -34.9961c50 -20 95.333 -50.333 136 -91c16.667 -16.667 32.834 -36.5 48.501 -59.5s30.167 -48.833 43.5 -77.5c10 -26.667 18 -53.334 24 -80.001c2.66699 -13.333 4.66699 -26.5 6 -39.5s2 -28.5 2 -46.5
c0 -58.667 -10.667 -114.334 -32 -167.001c-12.667 -29.333 -26.167 -53.833 -40.5 -73.5s-31.5 -40.5 -51.5 -62.5c-36.667 -36.667 -82.167 -66.834 -136.5 -90.501s-108.833 -35.5 -163.5 -35.5c-24.667 0 -41.5 0.5 -50.5 1.5s-23.667 3.5 -44 7.5
s-44.166 12.667 -71.499 26c-51.333 20 -96 49.167 -134 87.5s-68.5 84 -91.5 137s-34.5 109.5 -34.5 169.5c0 58.667 10.833 113.667 32.5 165s51.667 97.166 90 137.499s84.166 70.833 137.499 91.5c50.667 23.333 106 35 166 35zM525.998 568.004
c-37.333 0 -70.667 -14 -100 -42c-13.333 -14 -23.333 -29.333 -30 -46s-10 -34 -10 -52c0 -38 14.167 -70.833 42.5 -98.5s60.833 -41.5 97.5 -41.5c38 0 70.833 14.167 98.5 42.5s41.5 60.833 41.5 97.5c0 37.333 -13.667 70 -41 98s-60.333 42 -99 42zM325.997 1569
c41.333 0 77.5 -15.167 108.5 -45.5s46.5 -66.833 46.5 -109.5c0 -42 -14.833 -78 -44.5 -108s-66.5 -45 -110.5 -45c-42 0 -78.167 14.5 -108.5 43.5s-45.5 65.5 -45.5 109.5c0 41.333 15.167 77.5 45.5 108.5s66.5 46.5 108.5 46.5zM721.997 1569
c42 0 78 -15.332 108 -45.999c30.667 -28.667 46 -65 46 -109c0 -42 -15.333 -78 -46 -108c-28 -30 -64 -45 -108 -45c-42.667 0 -79 15 -109 45c-31.333 28 -47 64 -47 108c0 43.333 15.667 79.666 47 108.999c28.667 30.667 65 46 109 46z" />
    <glyph glyph-name="tehmarbutafinal" unicode="&#x629;" horiz-adv-x="1056" arabic-form="final" 
d="M1056 0h-131.001l-27 1l-29 3l-27 4l-38 13c-15.333 4 -29 10.333 -41 19l-35 22l-21 23l-9 8l-7 6l-42 -18l-45 -14c-13.333 -3.33301 -28.166 -6 -44.499 -8s-33.833 -3 -52.5 -3c-54.667 0 -106.667 10 -156 30s-92 47.667 -128 83s-66.333 77.666 -91 126.999
c-10.667 24.667 -18.667 49.334 -24 74.001l-6 37l-2 43c0 54.667 10.667 105 32 151s49.666 86.667 84.999 122s78.666 64.333 129.999 87c26 10.667 51.667 18.667 77 24c13.333 2.66699 26.333 4.66699 39 6s27.334 2 44.001 2c46.667 0 90.667 -7.33301 132 -22v68l2 21
c2 14 7 30 15 48l22 31l20 16c22.667 16.667 49.334 25 80.001 25h26c11.333 0 21.666 -1.66699 30.999 -5c12.667 -2 24 -6.66699 34 -14l17 -11l13 -12l18 -25c2.66699 -4.66699 6.33398 -14 11.001 -28l6 -24l2 -16l1 -6v-565l1 -5l1 -5l9 -9l15 -10l16 -4l13 -1h6h58
v-289zM641.999 446c0 20.667 -3.66699 37.001 -11 49.001c-6 13.333 -14.833 26.166 -26.5 38.499s-26.5 22.5 -44.5 30.5c-7.33301 2.66699 -15.5 5 -24.5 7s-17.833 3 -26.5 3c-14.667 0 -30.667 -3.16699 -48 -9.5s-32 -15.166 -44 -26.499
c-9.33301 -9.33301 -19 -23.333 -29 -42c-6.66699 -20 -10 -36.667 -10 -50c0 -16.667 3.16699 -32.834 9.5 -48.501s15.5 -29.5 27.5 -41.5c11.333 -10 26 -18.667 44 -26c15.333 -8 32 -12 50 -12s35 4 51 12c16.667 5.33301 30.667 13.833 42 25.5
s20.833 25.167 28.5 40.5s11.5 32 11.5 50zM314.999 1569c41.333 0 77.5 -15.167 108.5 -45.5s46.5 -66.833 46.5 -109.5c0 -42 -14.833 -78 -44.5 -108s-66.5 -45 -110.5 -45c-42 0 -78.167 14.5 -108.5 43.5s-45.5 65.5 -45.5 109.5c0 41.333 15.167 77.5 45.5 108.5
s66.5 46.5 108.5 46.5zM710.999 1569c42 0 78 -15.332 108 -45.999c30.667 -28.667 46 -65 46 -109c0 -42 -15.333 -78 -46 -108c-28 -30 -64 -45 -108 -45c-42.667 0 -79 15 -109 45c-31.333 28 -47 64 -47 108c0 43.333 15.667 79.666 47 108.999
c28.667 30.667 65 46 109 46z" />
    <glyph glyph-name="tehisolated" unicode="&#x62a;" horiz-adv-x="2060" arabic-form="isolated" 
d="M1626 1443c0 -39.333 -15.168 -74.5 -45.501 -105.5s-66.166 -46.5 -107.499 -46.5c-42 0 -77.667 14.667 -107 44s-44 65.333 -44 108s14.667 79 44 109s65 45 107 45s78 -15 108 -45s45 -66.333 45 -109zM1626 1065c0 -39.333 -15.168 -74.502 -45.501 -105.502
s-66.166 -46.5 -107.499 -46.5c-40 0 -75.667 15 -107 45c-29.333 30.667 -44 66.334 -44 107.001c0 42.667 14.667 78.834 44 108.501s65 44.5 107 44.5s78 -15 108 -45s45 -66 45 -108zM1960 199.998c0 -12.667 -1.16895 -23.668 -3.50195 -33.001
s-6.16602 -19.333 -11.499 -30c-10 -24.667 -28 -50 -54 -76c-23.333 -23.333 -52.333 -40.666 -87 -51.999l-40 -7l-1242 -1c-30.667 0 -67 5 -109 15c-81.333 20 -149 56 -203 108c-73.333 72 -110 170 -110 294c0 122.667 36 221 108 295
c51.333 51.333 118.666 87.333 201.999 108c46.667 10.667 83.334 16 110.001 16h632l41 -7c12 -2 22.667 -5.33301 32 -10c48.667 -24.667 73 -66.667 73 -126c0 -60 -24.333 -102 -73 -126c-16 -8 -40.333 -14 -73 -18h-614c-19.333 -2 -35.666 -4.33301 -48.999 -7
s-24 -6 -32 -10c-54 -22 -81 -62.333 -81 -121c0 -50 27 -86.667 81 -110c14 -4 41 -9.33301 81 -16h1064c10 0 16 0.666992 18 2c11.333 2 21.166 6.5 29.499 13.5s13.833 17.167 16.5 30.5l2 18v343c4 32 10 56 18 72c24 48 66.333 72 127 72
c58.667 0 101.334 -24.333 128.001 -73c8 -16 14 -40.333 18 -73v-405z" />
    <glyph glyph-name="tehfinal" unicode="&#x62a;" horiz-adv-x="2126" arabic-form="final" 
d="M1596 1431c0 -39.333 -15.1689 -74.5 -45.502 -105.5s-66.166 -46.5 -107.499 -46.5c-42 0 -77.667 14.667 -107 44s-44 65.333 -44 108c0 42 14.833 77.833 44.5 107.5s65.167 44.5 106.5 44.5c42.667 0 78.834 -14.667 108.501 -44s44.5 -65.333 44.5 -108zM1596 1054
c0 -42 -15.333 -77.833 -46 -107.5s-66.334 -44.5 -107.001 -44.5c-41.333 0 -76.833 14 -106.5 42s-44.5 64.667 -44.5 110c0 42 14.833 77.833 44.5 107.5s65.167 44.5 106.5 44.5c42.667 0 78.834 -14.667 108.501 -44s44.5 -65.333 44.5 -108zM2126 0h-168.001v195
l-3 -24c-8 -39.333 -28.333 -76.333 -61 -111c-26 -26 -55.667 -44.333 -89 -55l-40 -7h-1244c-30.667 0 -67 5 -109 15c-84 20 -151.667 55.667 -203 107c-72.667 72.667 -109 171 -109 295c0 122.667 36 221 108 295c50 51.333 117 87.333 201 108
c46.667 10.667 83 16 109 16h635c32 -4 56 -10 72 -18c48.667 -24.667 73 -66.667 73 -126c0 -60 -24.333 -102 -73 -126c-16 -8 -40.333 -14 -73 -18h-615c-19.333 -2 -35.666 -4.33301 -48.999 -7s-24 -6 -32 -10c-54 -22 -81 -62.333 -81 -121
c0 -52 26.667 -88.333 80 -109c14.667 -4.66699 41.334 -10 80.001 -16h1065c10 0 16 0.666992 18 2c13.333 2 23.666 6.66699 30.999 14c7.33301 6 12.333 15.667 15 29l2 19v343c0 18 2.33301 33 7 45c20 66 66.333 99 139 99c60 0 102 -24.333 126 -73
c8 -16 14 -40.333 18 -73v-399h170v-289z" />
    <glyph glyph-name="tehinitial" unicode="&#x62a;" horiz-adv-x="678" arabic-form="initial" 
d="M578 1442c0 -40.667 -15.333 -76 -46 -106s-66.667 -45 -108 -45c-40.667 0 -76 14.667 -106 44s-45 65 -45 107c0 42.667 14.833 78.834 44.5 108.501s65.167 44.5 106.5 44.5c42 0 78.167 -14.833 108.5 -44.5s45.5 -65.834 45.5 -108.501zM578 1064
c0 -42 -15.333 -77.833 -46 -107.5s-66.667 -44.5 -108 -44.5c-38.667 0 -73.5 15.167 -104.5 45.5s-46.5 65.833 -46.5 106.5c0 42.667 14.667 78.667 44 108s65 44 107 44c42.667 0 79 -14.667 109 -44s45 -65.333 45 -108zM559 202
c0 -10.667 -0.666016 -20.334 -1.99902 -29.001s-3 -15.667 -5 -21c-10 -38 -27.167 -69.167 -51.5 -93.5s-55.5 -41.5 -93.5 -51.5l-50 -7h-357v289h205c12.667 0 22.167 0.666992 28.5 2s13.166 5.83301 20.499 13.5s12.333 17.834 15 30.501l2 19v339
c4 30.667 10 55 18 73c24.667 48.667 66.667 73 126 73c60 0 102 -24.333 126 -73c7.33301 -16 13.333 -40.333 18 -73v-491z" />
    <glyph glyph-name="tehmedial" unicode="&#x62a;" horiz-adv-x="740" arabic-form="medial" 
d="M571 1438c0 -39.333 -14.832 -74.333 -44.499 -105s-65.834 -46 -108.501 -46c-42 0 -77.833 15.167 -107.5 45.5s-44.5 65.5 -44.5 105.5c0 42.667 14.833 78.834 44.5 108.501s65.5 44.5 107.5 44.5s78 -14.833 108 -44.5s45 -65.834 45 -108.501zM571.001 1062
c0 -39.333 -15.1689 -74.5 -45.502 -105.5s-66.166 -46.5 -107.499 -46.5c-42 0 -77.833 15.167 -107.5 45.5s-44.5 65.833 -44.5 106.5c0 42 14.833 77.833 44.5 107.5s65.5 44.5 107.5 44.5c42.667 0 78.834 -14.667 108.501 -44s44.5 -65.333 44.5 -108zM739.999 0
l-178.001 -0.000976562v180c-4 -22 -9 -41 -15 -57c-10 -25.333 -24.333 -47.666 -43 -66.999c-24 -22 -54.667 -38.333 -92 -49l-49 -7h-363v289h209c12.667 0 21.667 0.666992 27 2c8 0.666992 15.333 5 22 13c7.33301 6 12.333 16.333 15 31l2 19v339l6 37
c2 12.667 6.33301 24.667 13 36c24.667 48.667 66 73 124 73c58.667 0 101.334 -24.333 128.001 -73c8 -16 14 -40.333 18 -73v-404h176v-289z" />
    <glyph glyph-name="thehisolated" unicode="&#x62b;" horiz-adv-x="2060" arabic-form="isolated" 
d="M1225 1426c0 -41.333 -15.167 -77.668 -45.5 -109.001s-66.5 -47 -108.5 -47s-78.333 15.333 -109 46s-46 67.334 -46 110.001c0 42 15.333 78.333 46 109s67 46 109 46c41.333 0 77.333 -15.333 108 -46s46 -67 46 -109zM1435 1093
c0 -40.667 -14.832 -76.667 -44.499 -108s-65.834 -47 -108.501 -47c-44 0 -81 15 -111 45s-45 66.667 -45 110c0 40.667 15 77 45 109s67 48 111 48c42 0 78 -15.167 108 -45.5s45 -67.5 45 -111.5zM1054 1093c0 -42 -15.334 -78.333 -46.001 -109s-66.667 -46 -108 -46
s-77.666 15.167 -108.999 45.5s-47 66.833 -47 109.5c0 40.667 15 77 45 109s67 48 111 48c42 0 78.167 -15.333 108.5 -46s45.5 -67.667 45.5 -111zM1961 197.998c0 -11.333 -1.16895 -21.333 -3.50195 -30s-6 -19.167 -11 -31.5s-12 -24.833 -21 -37.5
s-19.833 -25.334 -32.5 -38.001c-24 -24 -53 -42 -87 -54l-40 -7h-1243c-29.333 0 -65.666 5 -108.999 15c-84 20 -151.667 55.667 -203 107c-73.333 72 -110 170.333 -110 295c0 122.667 36 221 108 295c50 52 117.333 88.333 202 109c46.667 10.667 83 16 109 16h633
c16.667 0 32 -2.33301 46 -7c66.667 -19.333 100 -65 100 -137c0 -60 -24.333 -102 -73 -126c-16 -8 -40.333 -14 -73 -18h-614c-19.333 -2 -35.666 -4.33301 -48.999 -7s-24 -6 -32 -10c-54.667 -23.333 -82 -63.666 -82 -120.999c0 -50.667 27 -87 81 -109
c14 -4.66699 41.333 -10 82 -16h1064c10 0 16 0.666992 18 2c14.667 2 24.667 6.66699 30 14c4.66699 3.33301 9 9.33301 13 18l6 30v342c4 32 10 56 18 72c24.667 48.667 66.667 73 126 73c60 0 102.333 -24.333 127 -73c8 -16 14 -40.667 18 -74v-404z" />
    <glyph glyph-name="thehfinal" unicode="&#x62b;" horiz-adv-x="2142" arabic-form="final" 
d="M1333 1431c0 -44 -15 -81 -45 -111s-66.667 -45 -110 -45c-40.667 0 -76.5 15.167 -107.5 45.5s-46.5 67.166 -46.5 110.499c0 42 15 78 45 108s66.333 45 109 45c41.333 0 77.5 -15.167 108.5 -45.5s46.5 -66.166 46.5 -107.499zM1542 1098
c0 -41.333 -15.167 -77.5 -45.5 -108.5s-66.5 -46.5 -108.5 -46.5c-41.333 0 -77.5 15.167 -108.5 45.5s-46.5 66.833 -46.5 109.5c0 40.667 15.167 76.5 45.5 107.5s66.833 46.5 109.5 46.5c40.667 0 76.5 -15.167 107.5 -45.5s46.5 -66.5 46.5 -108.5zM1159 1098
c0 -43.333 -14.668 -80 -44.001 -110s-65.666 -45 -108.999 -45c-40.667 0 -76.667 15.167 -108 45.5s-47 66.833 -47 109.5c0 40.667 15.167 76.5 45.5 107.5s66.833 46.5 109.5 46.5c42 0 78 -15 108 -45s45 -66.333 45 -109zM2142 2h-188.001v195l-3 -24
c-8 -39.333 -28.333 -76.333 -61 -111c-26 -26 -55.667 -44.333 -89 -55l-40 -7h-1244c-30.667 0 -67 5 -109 15c-84 20 -151.667 55.667 -203 107c-72.667 72.667 -109 171 -109 295c0 122.667 36 221 108 295c50 51.333 117 87.333 201 108c46.667 10.667 83 16 109 16
h635c32 -4 56 -10 72 -18c48.667 -24.667 73 -66.667 73 -126c0 -60 -24.333 -102 -73 -126c-16 -8 -40.333 -14 -73 -18h-615c-19.333 -2 -35.666 -4.33301 -48.999 -7s-24 -6 -32 -10c-54 -22 -81 -62.333 -81 -121c0 -52 26.667 -88.333 80 -109
c14.667 -4.66699 41.334 -10 80.001 -16h1065c10 0 16 0.666992 18 2c13.333 2 23.666 6.66699 30.999 14c7.33301 6 12.333 15.667 15 29l2 19v343c0 18 2.33301 33 7 45c20 66 66.333 99 139 99c60 0 102 -24.333 126 -73c8 -16 14 -40.333 18 -73v-399h190v-289z" />
    <glyph glyph-name="thehinitial" unicode="&#x62b;" horiz-adv-x="801" arabic-form="initial" 
d="M559 202c0 -10.667 -0.666016 -20.334 -1.99902 -29.001s-3 -15.667 -5 -21c-10 -38 -27.167 -69.167 -51.5 -93.5s-55.5 -41.5 -93.5 -51.5l-50 -7h-357v289h205c12.667 0 22.167 0.666992 28.5 2s13.166 5.83301 20.499 13.5s12.333 17.834 15 30.501l2 19v339
c4 30.667 10 55 18 73c24.667 48.667 66.667 73 126 73c60 0 102 -24.333 126 -73c7.33301 -16 13.333 -40.333 18 -73v-491zM524.001 1440c0 -36 -12.667 -66.6689 -38 -92.002s-56.333 -38 -93 -38c-34.667 0 -64.667 12.667 -90 38s-38 56 -38 92
c0 34.667 12 64.834 36 90.501s54.667 38.5 92 38.5c35.333 0 66 -12.667 92 -38s39 -55.666 39 -90.999zM701.001 1161c0 -36 -12.667 -66.667 -38 -92s-56.333 -38 -93 -38c-36 0 -66.667 12.667 -92 38s-38 56 -38 92s12.667 66.667 38 92s56 38 92 38
c36.667 0 67.667 -12.667 93 -38s38 -56 38 -92zM380.001 1161c0 -36.667 -12.5 -67.5 -37.5 -92.5s-55.833 -37.5 -92.5 -37.5c-35.333 0 -66 12.667 -92 38s-39 56 -39 92c0 34.667 13 65 39 91s56.667 39 92 39c36 0 66.667 -12.667 92 -38s38 -56 38 -92z" />
    <glyph glyph-name="thehmedial" unicode="&#x62b;" horiz-adv-x="740" arabic-form="medial" 
d="M529 1437c0 -36 -12.667 -66.6689 -38 -92.002s-56.333 -38 -93 -38c-34.667 0 -64.667 12.667 -90 38s-38 56 -38 92c0 34.667 12 64.834 36 90.501s54.667 38.5 92 38.5c35.333 0 66 -12.667 92 -38s39 -55.666 39 -90.999zM706 1158c0 -36 -12.667 -66.667 -38 -92
s-56.333 -38 -93 -38c-36 0 -66.667 12.667 -92 38s-38 56 -38 92s12.667 66.667 38 92s56 38 92 38c36.667 0 67.667 -12.667 93 -38s38 -56 38 -92zM385 1158c0 -36.667 -12.5 -67.5 -37.5 -92.5s-55.833 -37.5 -92.5 -37.5c-35.333 0 -66 12.667 -92 38s-39 56 -39 92
c0 34.667 13 65 39 91s56.667 39 92 39c36 0 66.667 -12.667 92 -38s38 -56 38 -92zM740 -0.00195312l-178.001 -0.000976562v180c-4 -22 -9 -41 -15 -57c-10 -25.333 -24.333 -47.666 -43 -66.999c-24 -22 -54.667 -38.333 -92 -49l-49 -7h-363v289h209
c12.667 0 21.667 0.666992 27 2c8 0.666992 15.333 5 22 13c7.33301 6 12.333 16.333 15 31l2 19v339l6 37c2 12.667 6.33301 24.667 13 36c24.667 48.667 66 73 124 73c58.667 0 101.334 -24.333 128.001 -73c8 -16 14 -40.333 18 -73v-404h176v-289z" />
    <glyph glyph-name="jeemisolated" unicode="&#x62c;" horiz-adv-x="1446" arabic-form="isolated" 
d="M1346 148c0 -62 -23.668 -105.332 -71.001 -129.999c-14 -8 -38 -14 -72 -18h-348l-15 30c-30.667 44.667 -77.667 67 -141 67c-46 0 -84 -16 -114 -48c-7.33301 -8.66699 -17.666 -25 -30.999 -49h-95c-18 -2 -31.333 -5.33301 -40 -10
c-26.667 -14.667 -40 -39.667 -40 -75s13.333 -60.333 40 -75l40 -11h121l14 -17c26.667 -25.333 62.667 -38 108 -38c38 0 71.667 9 101 27l29 28h152l41 -7c12 -2 22.667 -5.33301 32 -10c48.667 -22 73 -62.333 73 -121c0 -62 -24.333 -106 -73 -132
c-14 -6.66699 -38.333 -13 -73 -19h-526c-27.333 0 -58 4.33301 -92 13c-70 18 -127.667 49.667 -173 95c-62 63.333 -93 149.333 -93 258c0 112.667 30.667 201.667 92 267c44 47.333 101.667 80.333 173 99c37.333 9.33301 68.333 14 93 14h321c40 6 70.333 19.333 91 40
c25.333 25.333 38 60 38 104c0 53.333 -22 92 -66 116l-26 8l-41 9h-512c-40 9.33301 -70.833 27.5 -92.5 54.5s-32.5 57.5 -32.5 91.5c0 36.667 10.833 67.834 32.5 93.501s52.5 42.5 92.5 50.5h596l21 -3l37 -11c43.333 -14 84.666 -34 123.999 -60
c50.667 -34.667 89.334 -78.334 116.001 -131.001c15.333 -33.333 27.333 -69.833 36 -109.5s13 -76.167 13 -109.5c0 -42.667 -4.33301 -81.334 -13 -116.001l-7 -23l8 -3l8 -1l42 -7c12.667 -2 22.667 -5.33301 30 -10c48 -22 72 -62.333 72 -121zM831.999 -64.999
c0 -35.333 -12.667 -65.666 -38 -90.999s-55.666 -38 -90.999 -38c-36 0 -66.667 12.667 -92 38s-38 55.666 -38 90.999c0 36.667 12.667 67.667 38 93s56 38 92 38c35.333 0 65.666 -12.667 90.999 -38s38 -56.333 38 -93z" />
    <glyph glyph-name="jeemfinal" unicode="&#x62c;" horiz-adv-x="1372" arabic-form="final" 
d="M1372 0l-515.996 -0.000976562l-15 30c-30 43.333 -77 65 -141 65c-44.667 0 -83 -16 -115 -48c-6.66699 -6.66699 -17.334 -23 -32.001 -49h-93c-18 -2 -31.333 -5.33301 -40 -10c-26.667 -14.667 -40 -39.334 -40 -74.001c0 -35.333 13.333 -60.333 40 -75l40 -11h121
l14 -17c26.667 -25.333 62.667 -38 108 -38c38 0 71.667 9 101 27c8 6 17.333 15.333 28 28h152l42 -7c12 -2 22.667 -5.33301 32 -10c49.333 -22 74 -62.333 74 -121c0 -63.333 -24.667 -107.666 -74 -132.999c-14.667 -8 -39.334 -14.333 -74.001 -19h-524
c-30 0 -61 4.33301 -93 13c-70 18 -127.667 49.667 -173 95c-62.667 64.667 -94 151.334 -94 260.001c0 112 31 201 93 267c44 47.333 101.667 80.333 173 99c37.333 9.33301 68.666 14 93.999 14h320c22 0 45 7 69 21c39.333 24 59 64.333 59 121c0 54 -22 93 -66 117
l-26 8l-40 9h-512c-40.667 8 -71.667 26 -93 54s-32 58.333 -32 91c0 34 10.667 64.333 32 91s52.333 44.667 93 54h596c12 0 31 -4.66699 57 -14c44.667 -14 86 -34 124 -60c50 -34 88.333 -77.667 115 -131c4.66699 -8.66699 8.66699 -17.167 12 -25.5l11.5 -30
c4.33301 -11.667 9.16602 -29.5 14.499 -53.5c7.33301 -40 11 -76 11 -108v-11c0 -30.667 -1.66699 -52.667 -5 -66l-12 -57l-2 -7h10h176v-289zM833.004 -66.001c0 -34.667 -12.833 -64.832 -38.5 -90.499s-56.167 -38.5 -91.5 -38.5c-36 0 -66.667 12.167 -92 36.5
s-38 55.166 -38 92.499c0 36 12.667 66.667 38 92s56 38 92 38c16.667 0 32.667 -3 48 -9c8.66699 -3.33301 16 -7 22 -11s13 -10 21 -18c26 -25.333 39 -56 39 -92z" />
    <glyph glyph-name="jeeminitial" unicode="&#x62c;" horiz-adv-x="1624" arabic-form="initial" 
d="M0 0l0.00195312 289.001h923l37 7c10.667 2 20 5.33301 28 10c43.333 23.333 65 64.666 65 123.999c0 54 -22 93 -66 117l-26 8l-40 9h-702c-38 8 -68.167 25.833 -90.5 53.5s-33.5 57.834 -33.5 90.501c0 30 9 58 27 84s43 44 75 54l25 3l25 1h125h633
c12 0 31 -4.66699 57 -14c44.667 -14 86 -34 124 -60c50 -34 88.333 -77.333 115 -130c15.333 -32.667 27.666 -69 36.999 -109l8 -54l3 -55c0 -44.667 -4.33301 -84.334 -13 -119.001l-7 -23h90c32 -4 57.5 -19.5 76.5 -46.5s28.5 -58.5 28.5 -94.5
c0 -35.333 -8.83301 -66.333 -26.5 -93s-43.834 -44 -78.501 -52h-1419zM847.002 -305.999c0 -42.667 -14.167 -78.834 -42.5 -108.501s-64.166 -44.5 -107.499 -44.5c-40.667 0 -76.5 15.333 -107.5 46s-46.5 66.334 -46.5 107.001c0 42 15.167 77.833 45.5 107.5
s66.5 44.5 108.5 44.5c41.333 0 76.666 -15.167 105.999 -45.5s44 -65.833 44 -106.5z" />
    <glyph glyph-name="jeemmedial" unicode="&#x62c;" horiz-adv-x="1515" arabic-form="medial" 
d="M1515 0l-1515 -0.000976562v288h926l37 7c10.667 2 20 5.33301 28 10c43.333 23.333 65 64.333 65 123c0 54 -22 93 -66 117l-26 8l-40 9h-700c-38.667 8 -69.334 25.833 -92.001 53.5s-34 58.167 -34 91.5c0 32.667 11 62.834 33 90.501s53 45.167 93 52.5h784l21 -3
l42 -12c9.33301 -2.66699 18.833 -5.66699 28.5 -9s20.167 -8 31.5 -14c20.667 -10 40.334 -21.333 59.001 -34c50.667 -34 88.667 -77.667 114 -131c8 -16.667 15 -34 21 -52l17 -60c8 -39.333 12 -75.666 12 -108.999c0 -42.667 -4.33301 -81.334 -13 -116.001l-7 -22h181
v-288zM852 -306.001c0 -42.667 -14.667 -78.832 -44 -108.499s-65.333 -44.5 -108 -44.5c-39.333 0 -74.5 15.167 -105.5 45.5s-46.5 66.166 -46.5 107.499c0 39.333 15.167 74.5 45.5 105.5s65.833 46.5 106.5 46.5c42 0 77.833 -14.833 107.5 -44.5
s44.5 -65.5 44.5 -107.5z" />
    <glyph glyph-name="hahisolated" unicode="&#x62d;" horiz-adv-x="1446" arabic-form="isolated" 
d="M1346 146c0 -60.667 -23.668 -103.334 -71.001 -128.001c-12.667 -5.33301 -36.667 -10.666 -72 -15.999h-744c-18 -2 -31.333 -5.33301 -40 -10c-26.667 -14.667 -40 -39.667 -40 -75c0 -33.333 13.333 -58 40 -74l40 -11h525l41 -7c12 -2 22.667 -5.33301 32 -10
c49.333 -23.333 74 -63.666 74 -120.999c0 -62 -24.333 -106.333 -73 -133c-12 -6 -36.667 -12.667 -74 -20h-526c-26.667 0 -57.334 4.33301 -92.001 13c-70 18 -127.667 49 -173 93c-62 63.333 -93 149.333 -93 258c0 113.333 30.667 202.666 92 267.999
c44 47.333 101.667 80.333 173 99c37.333 9.33301 68.333 14 93 14h321c40 6 70.333 19.333 91 40c25.333 25.333 38 59.666 38 102.999c0 53.333 -22 92 -66 116l-26 8l-41 9h-512c-40.667 8 -71.667 26 -93 54s-32 58.333 -32 91c0 36 10.667 66.833 32 92.5
s52.333 42.5 93 50.5h596l20 -3l42 -12c18 -5.33301 37.833 -13.166 59.5 -23.499s41.834 -21.833 60.501 -34.5c50 -33.333 88.667 -76.666 116 -129.999c6.66699 -14.667 13.334 -31.667 20.001 -51s12.667 -39.333 18 -60l8 -54l3 -55
c0 -42.667 -4.33301 -81.334 -13 -116.001l-7 -23l16 -2l42 -7c12.667 -2 22.667 -5.33301 30 -10c48 -23.333 72 -64.333 72 -123z" />
    <glyph glyph-name="hahfinal" unicode="&#x62d;" horiz-adv-x="1371" arabic-form="final" 
d="M1371 0l-911 -0.000976562c-18 -2 -31.333 -5.33301 -40 -10c-26.667 -14.667 -40 -39.667 -40 -75s13.333 -60.333 40 -75l40 -11h524l41 -7c12 -2 22.667 -5.33301 32 -10c49.333 -22 74 -62 74 -120c0 -61.333 -24.333 -106 -73 -134c-12 -6 -36.667 -12.667 -74 -20
h-525c-30 0 -61 4.33301 -93 13c-70 18 -127.667 49.667 -173 95c-62 63.333 -93 149 -93 257c0 111.333 31 201 93 269c44 46 101.667 79 173 99c36 9.33301 67 14 93 14h320c35.333 0 65.5 12.5 90.5 37.5s37.5 59.5 37.5 103.5c0 54 -21.667 92.333 -65 115l-26 8l-40 9
h-512c-38.667 8 -69.334 25.833 -92.001 53.5s-34 58.5 -34 92.5c0 32.667 10.833 62.5 32.5 89.5s52.834 45.167 93.501 54.5h596c12 0 31 -4.66699 57 -14c44.667 -14 86 -34 124 -60c50 -34 88.333 -77.333 115 -130c16 -34 28 -70 36 -108s12 -73.667 12 -107v-11
l-1 -37c0 -12 -1.33301 -22 -4 -30l-4 -25c-0.666992 -9.33301 -3.66699 -21.666 -9 -36.999h185v-289z" />
    <glyph glyph-name="hahinitial" unicode="&#x62d;" horiz-adv-x="1624" arabic-form="initial" 
d="M0 0l0.00195312 289.001h923l37 7c10.667 2 20 5.33301 28 10c43.333 23.333 65 64.666 65 123.999c0 54 -22 93 -66 117l-26 8l-40 9h-702c-38 8 -68.167 25.833 -90.5 53.5s-33.5 57.834 -33.5 90.501c0 30 9 58 27 84s43 44 75 54l25 3l25 1h125h633
c12 0 31 -4.66699 57 -14c44.667 -14 86 -34 124 -60c50 -34 88.333 -77.333 115 -130c15.333 -32.667 27.666 -69 36.999 -109l8 -54l3 -55c0 -44.667 -4.33301 -84.334 -13 -119.001l-7 -23h90c32 -4 57.5 -19.5 76.5 -46.5s28.5 -58.5 28.5 -94.5
c0 -35.333 -8.83301 -66.333 -26.5 -93s-43.834 -44 -78.501 -52h-1419z" />
    <glyph glyph-name="hahmedial" unicode="&#x62d;" horiz-adv-x="1517" arabic-form="medial" 
d="M1517 0h-1517v288h927l37 7c10.667 2 20 5.33301 28 10c43.333 23.333 65 65 65 125c0 52.667 -22 91 -66 115l-26 8l-40 9h-701c-40 9.33301 -70.833 27.5 -92.5 54.5s-32.5 57.167 -32.5 90.5c0 36 10.667 66.833 32 92.5s52.333 42.5 93 50.5h784l20 -3l42 -12
c18 -5.33301 37.833 -13.166 59.5 -23.499s41.834 -21.833 60.501 -34.5c50 -34 88.333 -77.333 115 -130c8 -16.667 15 -34 21 -52l17 -60c8 -38 12 -74.333 12 -109c0 -42.667 -4.33301 -81.334 -13 -116.001l-7 -22h182v-288z" />
    <glyph glyph-name="khahisolated" unicode="&#x62e;" horiz-adv-x="1445" arabic-form="isolated" 
d="M766 1277c0 -39.333 -15.168 -74.502 -45.501 -105.502s-66.166 -46.5 -107.499 -46.5c-40 0 -75.667 15 -107 45c-29.333 30.667 -44 66.334 -44 107.001c0 42.667 14.667 78.834 44 108.501s65 44.5 107 44.5s78 -15 108 -45s45 -66 45 -108zM1345 142.998
c0 -60.667 -23.667 -103.333 -71 -128c-12.667 -5.33301 -36.667 -10.666 -72 -15.999h-743c-18 -2 -31.333 -5.33301 -40 -10c-26.667 -14.667 -40 -39.667 -40 -75c0 -33.333 13.333 -58 40 -74l40 -11h525l41 -7c12 -2 22.667 -5.33301 32 -10
c48.667 -22 73 -62.333 73 -121c0 -62 -24.333 -106.333 -73 -133l-27 -10l-46 -10h-527c-26.667 0 -57.334 4.33301 -92.001 13c-69.333 18 -126.666 49 -171.999 93c-62 63.333 -93 149.333 -93 258c0 113.333 30.667 202.666 92 267.999c44 47.333 101.333 80.333 172 99
c36 9.33301 67 14 93 14h322c40 6 70.333 19.333 91 40c25.333 25.333 38 59.666 38 102.999c0 53.333 -22 92 -66 116l-26 8l-41 9h-513c-40 9.33301 -70.833 27.5 -92.5 54.5s-32.5 57.167 -32.5 90.5c0 36 10.667 66.833 32 92.5s52.333 42.5 93 50.5h597l20 -3l42 -12
c18 -5.33301 37.833 -13.166 59.5 -23.499s41.834 -21.833 60.501 -34.5c50 -33.333 88.667 -76.666 116 -129.999c15.333 -32.667 27.666 -69 36.999 -109l8 -54l3 -55c0 -44.667 -4.33301 -84.334 -13 -119.001l-7 -22l16 -2l42 -7c12.667 -2 22.667 -5.33301 30 -10
c48 -23.333 72 -64.333 72 -123z" />
    <glyph glyph-name="khahfinal" unicode="&#x62e;" horiz-adv-x="1371" arabic-form="final" 
d="M737 1277c0 -40.667 -14.833 -76.5 -44.5 -107.5s-65.167 -46.5 -106.5 -46.5c-42 0 -77.833 15.167 -107.5 45.5s-44.5 66.5 -44.5 108.5s14.833 77.833 44.5 107.5s65.5 44.5 107.5 44.5s77.667 -14.667 107 -44s44 -65.333 44 -108zM1371 0l-911 -0.000976562
c-18 -2 -31.333 -5.33301 -40 -10c-26.667 -14.667 -40 -39.667 -40 -75s13.333 -60.333 40 -75l40 -11h524l41 -7c12 -2 22.667 -5.33301 32 -10c49.333 -22 74 -62 74 -120c0 -61.333 -24.333 -106 -73 -134c-12 -6 -36.667 -12.667 -74 -20h-525
c-30 0 -61 4.33301 -93 13c-70 18 -127.667 49.667 -173 95c-62 63.333 -93 149 -93 257c0 111.333 31 201 93 269c44 46 101.667 79 173 99c36 9.33301 67 14 93 14h320c35.333 0 65.5 12.5 90.5 37.5s37.5 59.5 37.5 103.5c0 54 -21.667 92.333 -65 115l-26 8l-40 9h-512
c-38.667 8 -69.334 25.833 -92.001 53.5s-34 58.5 -34 92.5c0 32.667 10.833 62.5 32.5 89.5s52.834 45.167 93.501 54.5h596c12 0 31 -4.66699 57 -14c44.667 -14 86 -34 124 -60c50 -34 88.333 -77.333 115 -130c16 -34 28 -70 36 -108s12 -73.667 12 -107v-11l-1 -37
c0 -12 -1.33301 -22 -4 -30l-4 -25c-0.666992 -9.33301 -3.66699 -21.666 -9 -36.999h185v-289z" />
    <glyph glyph-name="khahinitial" unicode="&#x62e;" horiz-adv-x="1624" arabic-form="initial" 
d="M872 1279c0 -41.333 -14.666 -77.001 -43.999 -107.001s-65 -45 -107 -45c-42.667 0 -78.834 14.833 -108.501 44.5s-44.5 65.5 -44.5 107.5s15 78 45 108s66 45 108 45c40.667 0 76 -15.167 106 -45.5s45 -66.166 45 -107.499zM0.000976562 -0.000976562
l0.00195312 289.001h923l37 7c10.667 2 20 5.33301 28 10c43.333 23.333 65 64.666 65 123.999c0 54 -22 93 -66 117l-26 8l-40 9h-702c-38 8 -68.167 25.833 -90.5 53.5s-33.5 57.834 -33.5 90.501c0 30 9 58 27 84s43 44 75 54l25 3l25 1h125h633c12 0 31 -4.66699 57 -14
c44.667 -14 86 -34 124 -60c50 -34 88.333 -77.333 115 -130c15.333 -32.667 27.666 -69 36.999 -109l8 -54l3 -55c0 -44.667 -4.33301 -84.334 -13 -119.001l-7 -23h90c32 -4 57.5 -19.5 76.5 -46.5s28.5 -58.5 28.5 -94.5c0 -35.333 -8.83301 -66.333 -26.5 -93
s-43.834 -44 -78.501 -52h-1419z" />
    <glyph glyph-name="khahmedial" unicode="&#x62e;" horiz-adv-x="1517" arabic-form="medial" 
d="M877 1279c0 -41.333 -14.668 -77.002 -44.001 -107.002s-65 -45 -107 -45s-78 15 -108 45s-45 65.667 -45 107c0 42.667 14.833 78.834 44.5 108.501s65.834 44.5 108.501 44.5c42 0 77.667 -14.667 107 -44s44 -65.666 44 -108.999zM1517 -0.00195312l-1517 0.00195312
v288h927c14.667 2 27.167 4.33301 37.5 7s19.5 6 27.5 10c43.333 23.333 65 65 65 125c0 53.333 -22 91.666 -66 114.999c-5.33301 2.66699 -13.833 5.5 -25.5 8.5s-25.167 5.83301 -40.5 8.5h-701c-40 9.33301 -70.833 27.5 -92.5 54.5s-32.5 57.167 -32.5 90.5
c0 36 10.667 66.833 32 92.5s52.333 42.5 93 50.5h784c4.66699 0 11.334 -1 20.001 -3s22.667 -6 42 -12s39.666 -14 60.999 -24s41 -21.333 59 -34c50.667 -34.667 89 -78 115 -130c8 -16.667 15.167 -34 21.5 -52s11.833 -38 16.5 -60c8 -38 12 -74.333 12 -109
c0 -42.667 -4.33301 -81.334 -13 -116.001l-7 -22h182v-288z" />
    <glyph glyph-name="dalisolated" unicode="&#x62f;" horiz-adv-x="1045" arabic-form="isolated" 
d="M947 0l-699.002 -0.00292969c-34.667 5.33301 -58.667 12 -72 20c-48.667 26.667 -73 70 -73 130c0 59.333 24.333 100.333 73 123c14 5.33301 38.667 10.666 74 15.999h416v69v96l-3 42c0 10.667 -1.66699 20.334 -5 29.001l-1 18l-5 15l-3 10l-4 10
c-21.333 41.333 -62 62 -122 62c-29.333 0 -56.666 -10.333 -81.999 -31c-19.333 -16 -36.666 -37.667 -51.999 -65l-16 -34l-22 -41c-14 -24.667 -35 -44 -63 -58l-35 -7c-17.333 0 -42 6 -74 18c-28 13.333 -49 32.333 -63 57c-9.33301 18.667 -14 40.334 -14 65.001
c0 13.333 0.666992 22 2 26l4 19l4 14c8 24.667 16.833 46.334 26.5 65.001s20.834 35.334 33.501 50.001l10 11l41 45c36 34 75.667 62.333 119 85c28.667 13.333 58.5 24.333 89.5 33s62.167 13 93.5 13c28 0 53.333 -2.33301 76 -7c91.333 -18 166.666 -54 225.999 -108
c39.333 -36 70 -82.333 92 -139l18 -69l5 -46l5 -103v-433z" />
    <glyph glyph-name="dalfinal" unicode="&#x62f;" horiz-adv-x="1053" arabic-form="final" 
d="M1054 0l-807.002 -0.000976562c-32.667 4 -56.667 10.333 -72 19c-48.667 24.667 -73 67.334 -73 128.001c0 58 24 99 72 123c14 5.33301 38.333 10.666 73 15.999h418v70v97l-1 33v20c-2 6.66699 -3.33301 11.334 -4 14.001c0 5.33301 -2 14.666 -6 27.999
c-2 10.667 -5 20 -9 28c-21.333 41.333 -61.666 62 -120.999 62c-30.667 0 -58.667 -10.667 -84 -32c-20 -16 -38 -38 -54 -66l-36 -73c-14 -24.667 -35 -44 -63 -58c-14 -4.66699 -26.333 -7 -37 -7c-20 0 -44 6.16699 -72 18.5s-49 31.5 -63 57.5
c-9.33301 18.667 -14 40 -14 64c0 13.333 0.666992 22 2 26l4 19l4 14c7.33301 22.667 15.833 43.334 25.5 62.001s21.167 36 34.5 52l10 11l41 45c34 32 73 60.333 117 85c60.667 31.333 121.667 47 183 47c20.667 0 34 -0.666992 40 -2c7.33301 0 20 -2 38 -6
c90.667 -18 166 -54 226 -108c38.667 -36.667 69.334 -82.667 92.001 -138l18 -69l5 -47l5 -103v-141h108v-289z" />
    <glyph glyph-name="thalisolated" unicode="&#x630;" horiz-adv-x="1045" arabic-form="isolated" 
d="M629 1252c0 -42 -15 -77.999 -45 -107.999s-65.667 -45 -107 -45c-39.333 0 -74.5 15.167 -105.5 45.5s-46.5 66.166 -46.5 107.499c0 42.667 14.667 79 44 109s65.333 45 108 45c39.333 0 74.5 -15.167 105.5 -45.5s46.5 -66.5 46.5 -108.5zM945 0.000976562
l-699.002 -0.00292969c-34.667 5.33301 -58.667 12 -72 20c-48.667 26.667 -73 70 -73 130c0 59.333 24.333 100.333 73 123c14 5.33301 38.667 10.666 74 15.999h416v69v96l-3 42c0 10.667 -1.66699 20.334 -5 29.001l-1 18l-5 15l-3 10l-4 10
c-21.333 41.333 -62 62 -122 62c-29.333 0 -56.666 -10.333 -81.999 -31c-19.333 -16 -36.666 -37.667 -51.999 -65l-16 -34l-22 -41c-14 -24.667 -35 -44 -63 -58l-35 -7c-17.333 0 -42 6 -74 18c-28 13.333 -49 32.333 -63 57c-9.33301 18.667 -14 40.334 -14 65.001
c0 13.333 0.666992 22 2 26l4 19l4 14c8 24.667 16.833 46.334 26.5 65.001s20.834 35.334 33.501 50.001l10 11l41 45c36 34 75.667 62.333 119 85c28.667 13.333 58.5 24.333 89.5 33s62.167 13 93.5 13c28 0 53.333 -2.33301 76 -7c91.333 -18 166.666 -54 225.999 -108
c39.333 -36 70 -82.333 92 -139l18 -69l5 -46l5 -103v-433z" />
    <glyph glyph-name="thalfinal" unicode="&#x630;" horiz-adv-x="1053" arabic-form="final" 
d="M648 1298c0 -42 -14.833 -77.833 -44.5 -107.5s-65.5 -44.5 -107.5 -44.5c-42.667 0 -78.667 14.667 -108 44s-44 65.333 -44 108c0 42 14.833 77.833 44.5 107.5s65.5 44.5 107.5 44.5c40 0 75.333 -14.833 106 -44.5s46 -65.5 46 -107.5zM1053 0l-807.002 -0.000976562
c-32.667 4 -56.667 10.333 -72 19c-48.667 24.667 -73 67.334 -73 128.001c0 58 24 99 72 123c14 5.33301 38.333 10.666 73 15.999h418v70v97l-1 33v20c-2 6.66699 -3.33301 11.334 -4 14.001c0 5.33301 -2 14.666 -6 27.999c-2 10.667 -5 20 -9 28
c-21.333 41.333 -61.666 62 -120.999 62c-30.667 0 -58.667 -10.667 -84 -32c-20 -16 -38 -38 -54 -66l-36 -73c-14 -24.667 -35 -44 -63 -58c-14 -4.66699 -26.333 -7 -37 -7c-20 0 -44 6.16699 -72 18.5s-49 31.5 -63 57.5c-9.33301 18.667 -14 40 -14 64
c0 13.333 0.666992 22 2 26l4 19l4 14c7.33301 22.667 15.833 43.334 25.5 62.001s21.167 36 34.5 52l10 11l41 45c34 32 73 60.333 117 85c60.667 31.333 121.667 47 183 47c20.667 0 34 -0.666992 40 -2c7.33301 0 20 -2 38 -6c90.667 -18 166 -54 226 -108
c38.667 -36.667 69.334 -82.667 92.001 -138l18 -69l5 -47l5 -103v-141h108v-289z" />
    <glyph glyph-name="rehisolated" unicode="&#x631;" horiz-adv-x="660" arabic-form="isolated" 
d="M560 -170l0.00292969 -12c0 -5.33301 -0.666992 -12.666 -2 -21.999l-4 -30c-8.66699 -48 -25.334 -86 -50.001 -114s-58.334 -48 -101.001 -60l-54 -9h-91c-16.667 2 -32 4.33301 -46 7s-25 6 -33 10c-52.667 23.333 -79 65.333 -79 126
c0 59.333 18.667 100.666 56 123.999c12 6 31 12 57 18c6.66699 0 10.667 0.666992 12 2c7.33301 2 15 6.33301 23 13l8 19l2 23v777c4 34.667 10 62 18 82c25.333 55.333 69.666 83 132.999 83c62 0 106 -27.333 132 -82c6.66699 -16 13 -43.667 19 -83v7v-879z" />
    <glyph glyph-name="rehfinal" unicode="&#x631;" horiz-adv-x="746" arabic-form="final" 
d="M746 -1h-186v-168v-12c0 -5.33301 -0.666992 -12.666 -2 -21.999l-4 -31c-9.33301 -48.667 -26.333 -86.834 -51 -114.501s-57.667 -47.5 -99 -59.5l-54 -9l-92 -2c-10.667 0 -20 0.666992 -28 2s-15 3 -21 5c-72.667 19.333 -109 65 -109 137
c0 60 18.667 101.667 56 125c12 6 31 12 57 18c4.66699 0 8 0.666992 10 2c14.667 4 25.667 9.66699 33 17c2.66699 2.66699 4 26 4 70l1 193l-1 239l-1 190l-1 121c4 36.667 10.333 64 19 82c25.333 55.333 69.666 83 132.999 83c60.667 0 104.334 -27.333 131.001 -82
c6.66699 -16 13 -43.667 19 -83v-412h186v-289z" />
    <glyph glyph-name="zainisolated" unicode="&#x632;" horiz-adv-x="660" arabic-form="isolated" 
d="M543 1418c0 -42 -14.167 -78 -42.5 -108s-64.5 -45 -108.5 -45c-40 0 -75.667 15 -107 45c-29.333 30.667 -44 66.667 -44 108c0 42 14.833 77.833 44.5 107.5s65.167 44.5 106.5 44.5c40.667 0 76 -14.833 106 -44.5s45 -65.5 45 -107.5zM560 -172l0.00292969 -12
c0 -5.33301 -0.666992 -12.666 -2 -21.999l-4 -30c-8.66699 -48 -25.334 -86 -50.001 -114s-58.334 -48 -101.001 -60l-54 -9h-91c-16.667 2 -32 4.33301 -46 7s-25 6 -33 10c-52.667 23.333 -79 65.333 -79 126c0 59.333 18.667 100.666 56 123.999c12 6 31 12 57 18
c6.66699 0 10.667 0.666992 12 2c7.33301 2 15 6.33301 23 13l8 19l2 23v777c4 34.667 10 62 18 82c25.333 55.333 69.666 83 132.999 83c62 0 106 -27.333 132 -82c6.66699 -16 13 -43.667 19 -83v7v-879z" />
    <glyph glyph-name="zainfinal" unicode="&#x632;" horiz-adv-x="746" arabic-form="final" 
d="M557 1422c0 -42.667 -14.667 -78.832 -44 -108.499s-65.333 -44.5 -108 -44.5c-39.333 0 -74.5 15.167 -105.5 45.5s-46.5 66.166 -46.5 107.499c0 42 14.833 77.833 44.5 107.5s65.5 44.5 107.5 44.5c40 0 75.333 -14.833 106 -44.5s46 -65.5 46 -107.5zM743 0.00195312
h-186v-168v-12c0 -5.33301 -0.666992 -12.666 -2 -21.999l-4 -31c-9.33301 -48.667 -26.333 -86.834 -51 -114.501s-57.667 -47.5 -99 -59.5l-54 -9l-92 -2c-10.667 0 -20 0.666992 -28 2s-15 3 -21 5c-72.667 19.333 -109 65 -109 137c0 60 18.667 101.667 56 125
c12 6 31 12 57 18c4.66699 0 8 0.666992 10 2c14.667 4 25.667 9.66699 33 17c2.66699 2.66699 4 26 4 70l1 193l-1 239l-1 190l-1 121c4 34.667 10 62 18 82c24 55.333 68 83 132 83c62 0 106 -27.333 132 -82c6 -14 12.667 -41.667 20 -83v-412h186v-289z" />
    <glyph glyph-name="seenisolated" unicode="&#x633;" horiz-adv-x="2221" arabic-form="isolated" 
d="M2121 244c0 -22.667 -1.16797 -40.001 -3.50098 -52.001s-7.5 -28.667 -15.5 -50l-21 -37c-6.66699 -11.333 -16.667 -23.666 -30 -36.999c-21.333 -19.333 -49.666 -35.333 -84.999 -48l-54 -16l-33 -4h-832l-27 -119c-30 -90 -73.667 -163.667 -131 -221
c-81.333 -79.333 -185.333 -119 -312 -119c-128 0 -233.667 39.333 -317 118c-58 56 -102.333 129.333 -133 220l-27 119v470c4 26.667 9.66699 46.334 17 59.001c24 40 66 60 126 60s101.667 -19.667 125 -59c7.33301 -12 13.333 -32 18 -60l-2 -452
c2 -18.667 4.66699 -34.667 8 -48s5.66602 -21.833 6.99902 -25.5s4 -9.5 8 -17.5c30.667 -60.667 83 -91 157 -91c76 0 130.667 30 164 90c8 16 15.667 46 23 90v725c4 29.333 10 51.333 18 66c24.667 44.667 66.667 67 126 67c60 0 102 -22 126 -66
c8 -14 14 -36.333 18 -67v-452h249v452c4 29.333 10 51.333 18 66c24.667 44.667 66.667 67 126 67c60 0 102 -22 126 -66c8 -14 14 -36.333 18 -67v-452h251v452c2 15.333 4.33301 28.5 7 39.5s6 19.833 10 26.5c24.667 44.667 66.334 67 125.001 67
c59.333 0 103 -21.333 131 -64c8 -14.667 15 -36.334 21 -65.001v-499z" />
    <glyph glyph-name="seenfinal" unicode="&#x633;" horiz-adv-x="2299" arabic-form="final" 
d="M1045 0l-27 -118c-30 -90.667 -73.667 -163.667 -131 -219c-81.333 -79.333 -184.666 -119 -309.999 -119c-128 0 -233.667 39.333 -317 118c-58 56 -102.333 129.667 -133 221l-27 119v468l7 34c2 10 5.33301 18.667 10 26c23.333 40 65.333 60 126 60
c57.333 0 98.666 -20 123.999 -60c7.33301 -12 13.333 -32 18 -60v-452c4 -40.667 11.333 -71 22 -91c30.667 -60.667 83 -91 157 -91c78 0 132.333 30.333 163 91c8.66699 18 16 48.333 22 91v724l1 21l6 20c20 60.667 66.333 91 139 91c60 0 102 -22 126 -66
c8 -14 14 -36 18 -66v-452h248v452c4 29.333 10 51.333 18 66c24 44 66 66 126 66c58.667 0 101 -22 127 -66c8 -14 14 -36 18 -66v-452h251v452c2 15.333 4.33301 28.5 7 39.5s6 19.833 10 26.5c23.333 44 65 66 125 66s102 -22 126 -66c8 -14 14 -36 18 -66v-453h186v-289
h-1254z" />
    <glyph glyph-name="seeninitial" unicode="&#x633;" horiz-adv-x="1705" arabic-form="initial" 
d="M1605 206l-2 -21.999l-17 -46c-12.667 -26.667 -29.667 -51.334 -51 -74.001c-24.667 -22.667 -57 -40 -97 -52c-30 -8 -66.667 -12 -110 -12h-1328v289h240v449c4 27.333 10 49 18 65c24 43.333 66.333 65 127 65s102.667 -21.667 126 -65c8 -14 14 -35.667 18 -65v-452
h250v452c4 27.333 10 49 18 65c24 43.333 66 65 126 65c58 0 99.667 -21.667 125 -65c7.33301 -14 13.333 -35.667 18 -65v-452h250v452c4 27.333 10 49 18 65c24 43.333 66 65 126 65c60.667 0 102.667 -21.667 126 -65c8 -14 14 -35.667 18 -65l1 3v-535z" />
    <glyph glyph-name="seenmedial" unicode="&#x633;" horiz-adv-x="1790" arabic-form="medial" 
d="M0 0v289h238v450c4 28 10.333 49.667 19 65c24 43.333 66.667 65 128 65c60.667 0 102.667 -21.667 126 -65c8 -14 14 -35.667 18 -65v-453h251v453l7 37c2 10.667 5.33301 20 10 28c24 43.333 66 65 126 65c60.667 0 102.667 -21.667 126 -65c8 -14 14 -35.667 18 -65
v-453h249v453c4 27.333 10 49 18 65c24 43.333 66 65 126 65s102.333 -21.667 127 -65c8 -14 14 -35.667 18 -65v-450h185v-289h-1790z" />
    <glyph glyph-name="sheenisolated" unicode="&#x634;" horiz-adv-x="2221" arabic-form="isolated" 
d="M1579 1443c0 -43.333 -15.5 -80.502 -46.5 -111.502s-68.833 -46.5 -113.5 -46.5c-44 0 -81.333 15.333 -112 46s-46 68 -46 112c0 42.667 15 79.834 45 111.501s67.667 47.5 113 47.5c44 0 81.667 -15.667 113 -47s47 -68.666 47 -111.999zM1792 1103
c0 -43.333 -15.332 -80.332 -45.999 -110.999s-67.667 -46 -111 -46c-42.667 0 -79.834 15 -111.501 45s-47.5 67.333 -47.5 112c0 44 15.5 81.5 46.5 112.5s68.5 46.5 112.5 46.5c43.333 0 80.333 -15.333 111 -46s46 -68.334 46 -113.001zM1402 1103
c0 -43.333 -15.334 -80.333 -46.001 -111s-68 -46 -112 -46c-41.333 0 -77.666 15.167 -108.999 45.5s-47 67.5 -47 111.5c0 42.667 15 79.834 45 111.501s67 47.5 111 47.5s81.333 -15.333 112 -46s46 -68.334 46 -113.001zM2121 243.999
c0 -22.667 -1.16797 -40.001 -3.50098 -52.001s-7.5 -28.667 -15.5 -50l-21 -37c-6.66699 -11.333 -16.667 -23.666 -30 -36.999c-21.333 -19.333 -49.666 -35.333 -84.999 -48l-54 -16l-33 -4h-832l-27 -119c-30 -90 -73.667 -163.667 -131 -221
c-81.333 -79.333 -185.333 -119 -312 -119c-128 0 -233.667 39.333 -317 118c-58 56 -102.333 129.333 -133 220l-27 119v470c4 26.667 9.66699 46.334 17 59.001c24 40 66 60 126 60s101.667 -19.667 125 -59c7.33301 -12 13.333 -32 18 -60l-2 -452
c2 -18.667 4.66699 -34.667 8 -48s5.66602 -21.833 6.99902 -25.5s4 -9.5 8 -17.5c30.667 -60.667 83 -91 157 -91c76 0 130.667 30 164 90c8 16 15.667 46 23 90v725c4 29.333 10 51.333 18 66c24.667 44.667 66.667 67 126 67c60 0 102 -22 126 -66
c8 -14 14 -36.333 18 -67v-452h249v452c4 29.333 10 51.333 18 66c24.667 44.667 66.667 67 126 67c60 0 102 -22 126 -66c8 -14 14 -36.333 18 -67v-452h251v452c2 15.333 4.33301 28.5 7 39.5s6 19.833 10 26.5c24.667 44.667 66.334 67 125.001 67
c59.333 0 103 -21.333 131 -64c8 -14.667 15 -36.334 21 -65.001v-499z" />
    <glyph glyph-name="sheenfinal" unicode="&#x634;" horiz-adv-x="2299" arabic-form="final" 
d="M1578 1446c0 -43.333 -15.167 -80.667 -45.5 -112s-67.833 -47 -112.5 -47c-42.667 0 -79.667 15.667 -111 47s-47 68.666 -47 111.999c0 42.667 15 79.834 45 111.501s67.667 47.5 113 47.5c44 0 81.333 -15.667 112 -47c13.333 -14 24.333 -30.5 33 -49.5
s13 -39.833 13 -62.5zM1792 1106c0 -44 -15.333 -81.332 -46 -111.999s-68 -46 -112 -46s-81.333 15.333 -112 46s-46 68 -46 112s15.5 81.5 46.5 112.5s68.167 46.5 111.5 46.5c44 0 81.333 -15.333 112 -46s46 -68.334 46 -113.001zM1402 1106
c0 -44 -15.333 -81.333 -46 -112s-68 -46 -112 -46s-81.333 15.333 -112 46s-46 68 -46 112c0 42.667 15 79.834 45 111.501s67.667 47.5 113 47.5c44 0 81.333 -15.333 112 -46s46 -68.334 46 -113.001zM1045 0l-27 -118c-30 -90.667 -73.667 -163.667 -131 -219
c-81.333 -79.333 -184.666 -119 -309.999 -119c-128 0 -233.667 39.333 -317 118c-58 56 -102.333 129.667 -133 221l-27 119v468l7 34c2 10 5.33301 18.667 10 26c23.333 40 65.333 60 126 60c57.333 0 98.666 -20 123.999 -60c7.33301 -12 13.333 -32 18 -60v-452
c4 -40.667 11.333 -71 22 -91c30.667 -60.667 83 -91 157 -91c78 0 132.333 30.333 163 91c8.66699 18 16 48.333 22 91v724l1 21l6 20c20 60.667 66.333 91 139 91c60 0 102 -22 126 -66c8 -14 14 -36 18 -66v-452h248v452c4 29.333 10 51.333 18 66c24 44 66 66 126 66
c58.667 0 101 -22 127 -66c8 -14 14 -36 18 -66v-452h251v452c2 15.333 4.33301 28.5 7 39.5s6 19.833 10 26.5c23.333 44 65 66 125 66s102 -22 126 -66c8 -14 14 -36 18 -66v-453h186v-289h-1254z" />
    <glyph glyph-name="sheeninitial" unicode="&#x634;" horiz-adv-x="1705" arabic-form="initial" 
d="M1059 1426c0 -43.333 -15.667 -80.667 -47 -112s-68.666 -47 -111.999 -47c-44 0 -81 15 -111 45s-45 68 -45 114c0 41.333 15 77.833 45 109.5s67 47.5 111 47.5c43.333 0 80.666 -15.167 111.999 -45.5s47 -67.5 47 -111.5zM1272 1086c0 -44 -15.333 -81.333 -46 -112
s-68 -46 -112 -46c-43.333 0 -80.333 15.333 -111 46s-46 68 -46 112c0 42.667 15 79.834 45 111.501s67.333 47.5 112 47.5c44 0 81.333 -15.333 112 -46s46 -68.334 46 -113.001zM882 1086c0 -44 -15.333 -81.332 -46 -111.999s-68 -46 -112 -46
c-42 0 -78.833 15 -110.5 45s-47.5 67.667 -47.5 113c0 44 15.5 81.5 46.5 112.5s68.167 46.5 111.5 46.5c44 0 81.333 -15.333 112 -46s46 -68.334 46 -113.001zM1605 206l-2 -21.999l-17 -46c-12.667 -26.667 -29.667 -51.334 -51 -74.001
c-24.667 -22.667 -57 -40 -97 -52c-30 -8 -66.667 -12 -110 -12h-1328v289h240v449c4 27.333 10 49 18 65c24 43.333 66.333 65 127 65s102.667 -21.667 126 -65c8 -14 14 -35.667 18 -65v-452h250v452c4 27.333 10 49 18 65c24 43.333 66 65 126 65
c58 0 99.667 -21.667 125 -65c7.33301 -14 13.333 -35.667 18 -65v-452h250v452c4 27.333 10 49 18 65c24 43.333 66 65 126 65c60.667 0 102.667 -21.667 126 -65c8 -14 14 -35.667 18 -65l1 3v-535z" />
    <glyph glyph-name="sheenmedial" unicode="&#x634;" horiz-adv-x="1790" arabic-form="medial" 
d="M1025 1444c0 -44 -15.666 -81.333 -46.999 -112c-14 -13.333 -30.5 -24.333 -49.5 -33s-39.833 -13 -62.5 -13c-42 0 -78.833 15 -110.5 45s-47.5 67.667 -47.5 113c0 44 15.333 81.333 46 112s68 46 112 46c43.333 0 80.666 -15.167 111.999 -45.5s47 -67.833 47 -112.5
zM1238 1105c0 -43.333 -15.167 -80.668 -45.5 -112.001s-67.5 -47 -111.5 -47s-81.333 15.333 -112 46s-46 68.334 -46 113.001c0 43.333 15.333 80.333 46 111s68 46 112 46c43.333 0 80.333 -15.333 111 -46s46 -67.667 46 -111zM848.001 1105
c0 -44 -15.5 -81.501 -46.5 -112.501s-68.167 -46.5 -111.5 -46.5s-80.333 15.333 -111 46s-46 68.334 -46 113.001c0 43.333 15.333 80.333 46 111s67.667 46 111 46c44 0 81.333 -15.333 112 -46s46 -67.667 46 -111zM0.000976562 -0.00292969v289h238v450
c4 28 10.333 49.667 19 65c24 43.333 66.667 65 128 65c60.667 0 102.667 -21.667 126 -65c8 -14 14 -35.667 18 -65v-453h251v453l7 37c2 10.667 5.33301 20 10 28c24 43.333 66 65 126 65c60.667 0 102.667 -21.667 126 -65c8 -14 14 -35.667 18 -65v-453h249v453
c4 27.333 10 49 18 65c24 43.333 66 65 126 65s102.333 -21.667 127 -65c8 -14 14 -35.667 18 -65v-450h185v-289h-1790z" />
    <glyph glyph-name="sadisolated" unicode="&#x635;" horiz-adv-x="2345" arabic-form="isolated" 
d="M2204 226c-32.667 -66.667 -76.334 -119.666 -131.001 -158.999c-62.667 -44.667 -132 -67 -208 -67h-834l-17 -114c-22 -86.667 -63 -158 -123 -214c-82.667 -76.667 -194.667 -115 -336 -115c-134 0 -240.667 38.333 -320 115c-56 54 -95.333 125.333 -118 214l-17 116
v467c3.33301 28.667 8.66602 50 15.999 64c22.667 42.667 63.334 64 122.001 64c62 0 105 -21.333 129 -64c8 -14 14 -35.333 18 -64v-467c4 -36 10.333 -62.667 19 -80c26 -53.333 74.333 -80 145 -80c78 0 133 26.333 165 79c10 17.333 18 43.666 24 78.999v850
c0 10.667 0.666992 20.167 2 28.5s3 15.166 5 20.499c20 72.667 67 109 141 109c56.667 0 97.334 -26.333 122.001 -79c7.33301 -17.333 13.333 -43.666 18 -78.999h807l30 -1l37 -6c54.667 -10 103 -27.333 145 -52c60 -34 106 -81.333 138 -142
c19.333 -36.667 34.666 -76.667 46 -120c5.33301 -22 9.33301 -42 12 -60s4 -37.667 4 -59c0 -68 -13.667 -129.333 -41 -184zM1967 422.001c0 56.667 -25.666 97.334 -76.999 122.001c-16 7.33301 -41.667 13.333 -77 18h-755v-273h751
c35.333 3.33301 61.666 8.66602 78.999 15.999c52.667 22 79 61 79 117z" />
    <glyph glyph-name="sadfinal" unicode="&#x635;" horiz-adv-x="2320" arabic-form="final" 
d="M2320 0l-1289 0.000976562l-17 -115c-22 -86.667 -63.333 -158.334 -124 -215.001c-82.667 -77.333 -194.667 -116 -336 -116c-134 0 -240.333 38.333 -319 115c-54.667 53.333 -94 124.333 -118 213l-17 116v471c0 24.667 5.33301 45.334 16 62.001
c22 42 62.333 63 121 63c61.333 0 104.333 -21.333 129 -64c6.66699 -12 13 -33.333 19 -64v-468c4 -36.667 10.667 -63 20 -79c26.667 -52.667 74.334 -79 143.001 -79c76.667 0 131.334 26.333 164.001 79c10 17.333 18 43.666 24 78.999v850
c0 10.667 0.666992 20.167 2 28.5s3 15.166 5 20.499c20 72.667 67 109 141 109c56.667 0 97.334 -26.333 122.001 -79c7.33301 -17.333 13.333 -43.666 18 -78.999h810l30 -1l37 -6c54 -10 102.667 -27.333 146 -52c58.667 -34 104.334 -81.667 137 -143
c13.333 -28 24.666 -60.667 34 -98l8 -49l3 -48l-3 -60c-0.666992 -7.33301 -2 -16.5 -4 -27.5s-4.33301 -21.167 -7 -30.5l-15 -47h120v-286zM1945 427.001c0 58 -26 99 -78 123c-16 7.33301 -42 13.333 -78 18h-755v-274h751c16.667 0 31.5 1.5 44.5 4.5
s24.833 6.83301 35.5 11.5c53.333 22 80 61 80 117z" />
    <glyph glyph-name="sadinitial" unicode="&#x635;" horiz-adv-x="1724" arabic-form="initial" 
d="M1604 288c-20 -74 -56.666 -135.999 -109.999 -185.999s-118.333 -84 -195 -102h-1299v289h135v561c0 10.667 0.666992 20.167 2 28.5s3 15.166 5 20.499c20 72.667 66 109 138 109c58 0 99.333 -26.333 124 -79c7.33301 -17.333 13.333 -43.666 18 -78.999h856
c12 0 31 -4.66699 57 -14c22 -6 43.5 -14.167 64.5 -24.5s40.833 -21.833 59.5 -34.5c49.333 -33.333 87.666 -76.333 114.999 -129c8 -16.667 15 -34 21 -52l17 -60c8 -39.333 12 -76 12 -110c0 -42.667 -4.33301 -81.334 -13 -116.001zM1326 427.001
c0 54 -22 93.001 -66 117.001l-26 8l-40 9h-772v-275h774l37 7c10.667 2 20 5.33301 28 10c43.333 23.333 65 64.666 65 123.999z" />
    <glyph glyph-name="sadmedial" unicode="&#x635;" horiz-adv-x="1780" arabic-form="medial" 
d="M1780 0l-1780 -0.000976562v289h133v561c2 16.667 4.33301 32 7 46s6 25 10 33c24 52.667 66.333 79 127 79c57.333 0 99 -26.333 125 -79c7.33301 -17.333 13.333 -43.666 18 -78.999h854l21 -3l41 -12c18 -5.33301 37.833 -13.166 59.5 -23.499
s41.834 -21.833 60.501 -34.5c48.667 -33.333 87.334 -76.333 116.001 -129c15.333 -32.667 27.666 -69 36.999 -109l8 -54l3 -55c0 -44.667 -4.33301 -84.334 -13 -119.001l-7 -22h180v-289zM1323 428.999c0 53.333 -22 92.001 -66 116.001l-26 8l-41 9h-770v-274h772l37 7
c10.667 2 20 5.33301 28 10c44 23.333 66 64.666 66 123.999z" />
    <glyph glyph-name="dadisolated" unicode="&#x636;" horiz-adv-x="2345" arabic-form="isolated" 
d="M1627 1431c0 -40.667 -14.833 -76.333 -44.5 -107s-65.5 -46 -107.5 -46c-41.333 0 -77.666 15 -108.999 45c-29.333 30.667 -44 66.667 -44 108c0 39.333 15.167 74.5 45.5 105.5s66.166 46.5 107.499 46.5c39.333 0 74.5 -15.167 105.5 -45.5s46.5 -65.833 46.5 -106.5
zM2204 226.001c-32.667 -66.667 -76.334 -119.666 -131.001 -158.999c-62.667 -44.667 -132 -67 -208 -67h-834l-17 -114c-22 -86.667 -63 -158 -123 -214c-82.667 -76.667 -194.667 -115 -336 -115c-134 0 -240.667 38.333 -320 115c-56 54 -95.333 125.333 -118 214
l-17 116v467c3.33301 28.667 8.66602 50 15.999 64c22.667 42.667 63.334 64 122.001 64c62 0 105 -21.333 129 -64c8 -14 14 -35.333 18 -64v-467c4 -36 10.333 -62.667 19 -80c26 -53.333 74.333 -80 145 -80c78 0 133 26.333 165 79c10 17.333 18 43.666 24 78.999v850
c0 10.667 0.666992 20.167 2 28.5s3 15.166 5 20.499c20 72.667 67 109 141 109c56.667 0 97.334 -26.333 122.001 -79c7.33301 -17.333 13.333 -43.666 18 -78.999h807l30 -1l37 -6c54.667 -10 103 -27.333 145 -52c60 -34 106 -81.333 138 -142
c19.333 -36.667 34.666 -76.667 46 -120c5.33301 -22 9.33301 -42 12 -60s4 -37.667 4 -59c0 -68 -13.667 -129.333 -41 -184zM1960 430.002c0 56.667 -25.666 97.334 -76.999 122.001c-16 7.33301 -41.667 13.333 -77 18h-755v-273h751
c35.333 3.33301 61.666 8.66602 78.999 15.999c52.667 22 79 61 79 117z" />
    <glyph glyph-name="dadfinal" unicode="&#x636;" horiz-adv-x="2320" arabic-form="final" 
d="M1652 1429c0 -42.667 -14.6689 -79 -44.002 -109s-65 -45 -107 -45c-41.333 0 -77.666 15 -108.999 45c-29.333 30.667 -44 67 -44 109s14.833 77.833 44.5 107.5s65.834 44.5 108.501 44.5c39.333 0 74.333 -14.833 105 -44.5s46 -65.5 46 -107.5zM2320 0
l-1289 0.000976562l-17 -115c-22 -86.667 -63.333 -158.334 -124 -215.001c-82.667 -77.333 -194.667 -116 -336 -116c-134 0 -240.333 38.333 -319 115c-54.667 53.333 -94 124.333 -118 213l-17 116v471c0 24.667 5.33301 45.334 16 62.001c22 42 62.333 63 121 63
c61.333 0 104.333 -21.333 129 -64c6.66699 -12 13 -33.333 19 -64v-468c4 -36.667 10.667 -63 20 -79c26.667 -52.667 74.334 -79 143.001 -79c76.667 0 131.334 26.333 164.001 79c10 17.333 18 43.666 24 78.999v850c0 10.667 0.666992 20.167 2 28.5s3 15.166 5 20.499
c20 72.667 67 109 141 109c56.667 0 97.334 -26.333 122.001 -79c7.33301 -17.333 13.333 -43.666 18 -78.999h810l30 -1l37 -6c54 -10 102.667 -27.333 146 -52c58.667 -34 104.334 -81.667 137 -143c15.333 -29.333 26.666 -62 34 -98c7.33301 -36 11 -68 11 -96l-3 -60
c-0.666992 -7.33301 -2 -16.333 -4 -27s-4.33301 -20.667 -7 -30c-2 -10.667 -7 -26 -15 -46h120v-289zM1937 419.001c0 58 -26 99 -78 123c-16 7.33301 -42 13.333 -78 18h-755v-274h751c16.667 0 31.5 1.5 44.5 4.5s24.833 6.83301 35.5 11.5c53.333 22 80 61 80 117z" />
    <glyph glyph-name="dadinitial" unicode="&#x636;" horiz-adv-x="1724" arabic-form="initial" 
d="M1008 1429c0 -40.667 -14.833 -76.5 -44.5 -107.5s-65.5 -46.5 -107.5 -46.5s-77.833 15.167 -107.5 45.5s-44.5 66.5 -44.5 108.5s14.833 77.833 44.5 107.5s65.5 44.5 107.5 44.5c39.333 0 74.5 -15.167 105.5 -45.5s46.5 -65.833 46.5 -106.5zM1604 288
c-20 -74 -56.666 -135.999 -109.999 -185.999s-118.333 -84 -195 -102h-1299v288h132l3 562c0 10.667 0.666992 20.167 2 28.5s3 15.166 5 20.499c20 72.667 66 109 138 109c58 0 99.333 -26.333 124 -79c7.33301 -17.333 13.333 -43.666 18 -78.999h856
c12 0 31 -4.66699 57 -14c22 -6 43.5 -14.167 64.5 -24.5s40.833 -21.833 59.5 -34.5c49.333 -33.333 87.666 -76.333 114.999 -129c8 -16.667 15 -34 21 -52l17 -60c8 -39.333 12 -76 12 -110c0 -42.667 -4.33301 -81.334 -13 -116.001zM1326 427.001
c0 54 -22 93.001 -66 117.001l-26 8l-40 9h-772v-275h774l37 7c10.667 2 20 5.33301 28 10c43.333 23.333 65 64.666 65 123.999z" />
    <glyph glyph-name="dadmedial" unicode="&#x636;" horiz-adv-x="1780" arabic-form="medial" 
d="M1004 1430c0 -42.667 -14.667 -78.833 -44 -108.5s-65.333 -44.5 -108 -44.5c-40 0 -75.667 15 -107 45c-29.333 30.667 -44 66.667 -44 108s14.667 77 44 107s65 45 107 45c39.333 0 74.5 -15.167 105.5 -45.5s46.5 -65.833 46.5 -106.5zM1780 0.000976562
l-1780 -0.00195312v289h133v561c2 16.667 4.33301 32 7 46s6 25 10 33c24 52.667 66.333 79 127 79c57.333 0 99 -26.333 125 -79c7.33301 -17.333 13.333 -43.666 18 -78.999h854l21 -3l41 -12c18 -5.33301 37.833 -13.166 59.5 -23.499s41.834 -21.833 60.501 -34.5
c48.667 -33.333 87.334 -76.333 116.001 -129c15.333 -33.333 27.666 -70 36.999 -110l8 -54l3 -55c0 -36.667 -3.33301 -70.667 -10 -102l-10 -39h180v-288zM1323 428.999c0 53.333 -22 92.001 -66 116.001l-26 8l-41 9h-770v-274h772l37 7c10.667 2 20 5.33301 28 10
c44 23.333 66 64.666 66 123.999z" />
    <glyph glyph-name="tahisolated" unicode="&#x637;" horiz-adv-x="1862" arabic-form="isolated" 
d="M1741 290c-30 -74.667 -71.001 -136.668 -123.001 -186.001s-120.333 -84.666 -205 -105.999l2 2h-1175c-1.33301 -1.33301 -5.33301 -2.66602 -12 -3.99902c-6 0 -13 1.33301 -21 4s-20.333 8 -37 16c-46.667 23.333 -70 64.666 -70 123.999
c0 58.667 22.667 100.667 68 126c10.667 6 33.334 12.667 68.001 20l44 4v564v598l10 51c17.333 53.333 62.333 80 135 80c62 0 104 -18 126 -54c12 -19.333 18 -45 18 -77v-598h737c61.333 0 105.833 -1.83301 133.5 -5.5s63.167 -16.167 106.5 -37.5
c32 -14.667 62.833 -35 92.5 -61s54.5 -58.667 74.5 -98c15.333 -33.333 27.333 -69.5 36 -108.5s13 -75.833 13 -110.5c0 -38 -3.33301 -72.333 -10 -103l-4 -18zM1465 432.999c0 54 -22.333 92.333 -67 115l-26 8l-41 9h-763v-277h766c27.333 4 49 10 65 18
c44 24 66 66.333 66 127z" />
    <glyph glyph-name="tahfinal" unicode="&#x637;" horiz-adv-x="1923" arabic-form="final" 
d="M1923 0h-1687c-30.667 4 -53.334 9.66699 -68.001 17c-45.333 23.333 -68 65 -68 125c0 58.667 22.667 100.667 68 126c10.667 6 33.334 12.667 68.001 20h44v569l-2 597l3 29l7 22c17.333 54 61.666 81 132.999 81c48.667 0 84.834 -11.167 108.501 -33.5
s35.5 -55.166 35.5 -98.499v-597h738c59.333 0 103.5 -1.83301 132.5 -5.5s64.167 -16.167 105.5 -37.5c30.667 -13.333 61.834 -33.833 93.501 -61.5s56.334 -59.667 74.001 -96s30.5 -74.5 38.5 -114.5s12 -77 12 -111c0 -44.667 -4.33301 -84.334 -13 -119.001l-7 -23
h184v-289zM1446 435c0 55.333 -21.667 94.333 -65 117c-10 5.33301 -31.667 11 -65 17h-765v-279h767c28 4 49.333 10.333 64 19c42.667 24.667 64 66.667 64 126z" />
    <glyph glyph-name="tahinitial" unicode="&#x637;" horiz-adv-x="1772" arabic-form="initial" 
d="M1651 293c-30 -75.333 -70.332 -137 -120.999 -185c-54 -51.333 -123.333 -87.333 -208 -108h-1322v289h190v567l-1 598l3 29l7 22c17.333 53.333 62.666 80 135.999 80c48 0 84 -11 108 -33s36 -54.667 36 -98v-598h738c60 0 104.167 -1.83301 132.5 -5.5
s63.166 -16.167 104.499 -37.5c35.333 -16 66.333 -36 93 -60c32 -28 57.333 -60.667 76 -98c6.66699 -14.667 13.334 -31.667 20.001 -51s12.667 -39.333 18 -60l8 -54l3 -55c0 -38.667 -3.33301 -72.667 -10 -102l-4 -18zM1374 434c0 52.667 -22 91 -66 115l-26 8l-40 9
h-764v-276h766c28 4 49.667 10.333 65 19c43.333 24 65 65.667 65 125z" />
    <glyph glyph-name="tahmedial" unicode="&#x637;" horiz-adv-x="1827" arabic-form="medial" 
d="M1827 0h-1827v289h184v568l-2 597l3 29l7 22c17.333 54 61.333 81 132 81c48 0 84.167 -11.167 108.5 -33.5s36.5 -55.166 36.5 -98.499v-597h739c60 0 104.167 -1.83301 132.5 -5.5s63.166 -16.167 104.499 -37.5c30.667 -13.333 61.834 -33.833 93.501 -61.5
s56.334 -59.667 74.001 -96s30.5 -74.5 38.5 -114.5s12 -77 12 -111c0 -44.667 -4.33301 -84.334 -13 -119.001l-7 -23h184v-289zM1364 435c0 56 -21.667 95 -65 117l-26 8l-40 9h-764v-279h767c28 4 49.333 10.333 64 19c42.667 24.667 64 66.667 64 126z" />
    <glyph glyph-name="zahisolated" unicode="&#x638;" horiz-adv-x="1862" arabic-form="isolated" 
d="M1134 1434c0 -42 -15.167 -78 -45.5 -108s-66.5 -45 -108.5 -45c-39.333 0 -74.666 15 -105.999 45c-29.333 30.667 -44 66.667 -44 108s14.667 77 44 107s64.666 45 105.999 45c40 0 75.667 -15.167 107 -45.5s47 -65.833 47 -106.5zM1741 290
c-30 -74.667 -71.001 -136.668 -123.001 -186.001s-120.333 -84.666 -205 -105.999l2 2h-1175c-1.33301 -1.33301 -5.33301 -2.66602 -12 -3.99902c-6 0 -13 1.33301 -21 4s-20.333 8 -37 16c-46.667 23.333 -70 64.666 -70 123.999c0 58.667 22.667 100.667 68 126
c10.667 6 33.334 12.667 68.001 20l44 4v564v598l10 51c17.333 53.333 62.333 80 135 80c62 0 104 -18 126 -54c12 -19.333 18 -45 18 -77v-598h737c61.333 0 105.833 -1.83301 133.5 -5.5s63.167 -16.167 106.5 -37.5c32 -14.667 62.833 -35 92.5 -61
s54.5 -58.667 74.5 -98c15.333 -33.333 27.333 -69.5 36 -108.5s13 -75.833 13 -110.5c0 -38 -3.33301 -72.333 -10 -103l-4 -18zM1466 432.999c0 54 -22.333 92.333 -67 115l-26 8l-41 9h-763v-277h766c27.333 4 49 10 65 18c44 24 66 66.333 66 127z" />
    <glyph glyph-name="zahfinal" unicode="&#x638;" horiz-adv-x="1923" arabic-form="final" 
d="M1146 1434c0 -41.333 -14.665 -77 -43.998 -107s-65 -45 -107 -45c-42.667 0 -78.834 14.667 -108.501 44s-44.5 65.333 -44.5 108c0 39.333 15.167 74.5 45.5 105.5s66.166 46.5 107.499 46.5c42 0 77.667 -14.667 107 -44s44 -65.333 44 -108zM1923 0h-1687
c-30.667 4 -53.334 9.66699 -68.001 17c-45.333 23.333 -68 65 -68 125c0 58.667 22.667 100.667 68 126c10.667 6 33.334 12.667 68.001 20h44v569l-2 597l3 29l7 22c17.333 54 61.666 81 132.999 81c48.667 0 84.834 -11.167 108.501 -33.5s35.5 -55.166 35.5 -98.499
v-597h738c59.333 0 103.5 -1.83301 132.5 -5.5s64.167 -16.167 105.5 -37.5c30.667 -13.333 61.834 -33.833 93.501 -61.5s56.334 -59.667 74.001 -96s30.5 -74.5 38.5 -114.5s12 -77.333 12 -112c0 -42.667 -4.33301 -82.334 -13 -119.001l-7 -23h184v-288zM1460 442
c0 55.333 -21.667 94.333 -65 117c-10 5.33301 -31.667 11 -65 17h-765v-279h767c28 4 49.333 10.333 64 19c42.667 24.667 64 66.667 64 126z" />
    <glyph glyph-name="zahinitial" unicode="&#x638;" horiz-adv-x="1772" arabic-form="initial" 
d="M1044 1435c0 -40.667 -14.833 -76.332 -44.5 -106.999s-65.5 -46 -107.5 -46s-77.833 15.167 -107.5 45.5s-44.5 66.166 -44.5 107.499c0 42 14.833 77.833 44.5 107.5s65.5 44.5 107.5 44.5c39.333 0 74.5 -15.167 105.5 -45.5s46.5 -65.833 46.5 -106.5zM1651 293.002
c-30 -75.333 -70.332 -137 -120.999 -185c-54 -51.333 -123.333 -87.333 -208 -108h-1322v288h190v568l-1 598l3 29l7 22c17.333 53.333 62.666 80 135.999 80c48 0 84 -11 108 -33s36 -54.667 36 -98v-598h738c60 0 104.167 -1.83301 132.5 -5.5
s63.166 -16.167 104.499 -37.5c35.333 -16 66.333 -36 93 -60c32 -28 57.333 -60.667 76 -98c6.66699 -14.667 13.334 -31.667 20.001 -51s12.667 -39.333 18 -60l8 -54l3 -55c0 -38.667 -3.33301 -72.667 -10 -102l-4 -18zM1368 434.002c0 52.667 -22 91 -66 115l-26 8
l-40 9h-764v-276h766c28 4 49.667 10.333 65 19c43.333 24 65 65.667 65 125z" />
    <glyph glyph-name="zahmedial" unicode="&#x638;" horiz-adv-x="1827" arabic-form="medial" 
d="M1050 1434c0 -41.333 -14.665 -77 -43.998 -107s-65 -45 -107 -45c-42.667 0 -78.834 14.667 -108.501 44s-44.5 65.333 -44.5 108c0 39.333 15.167 74.5 45.5 105.5s66.166 46.5 107.499 46.5c42 0 77.667 -14.667 107 -44s44 -65.333 44 -108zM1827 0h-1827v288h184
v569l-2 597l3 29l7 22c17.333 54 61.333 81 132 81c48 0 84.167 -11.167 108.5 -33.5s36.5 -55.166 36.5 -98.499v-597h739c60 0 104.167 -1.83301 132.5 -5.5s63.166 -16.167 104.499 -37.5c30.667 -13.333 61.834 -33.833 93.501 -61.5s56.334 -59.667 74.001 -96
s30.5 -74.5 38.5 -114.5s12 -77.333 12 -112c0 -42.667 -4.33301 -82.334 -13 -119.001l-7 -23h184v-288zM1364 435c0 56 -21.667 95 -65 117l-26 8l-40 9h-764v-279h767c28 4 49.333 10.333 64 19c42.667 24.667 64 66.667 64 126z" />
    <glyph glyph-name="ainisolated" unicode="&#x639;" horiz-adv-x="1130" arabic-form="isolated" 
d="M1030 -329c0 -60 -26.333 -102.333 -79 -127c-15.333 -6.66699 -42 -13 -80 -19l-375 -1v10h-16c-43.333 0 -84.333 5.33301 -123 16c-63.333 16 -116.666 45 -159.999 87c-53.333 52 -85 124.333 -95 217c0 12 -0.666992 20.333 -2 25v21
c0 66.667 14.667 125.334 44 176.001c20.667 35.333 48 66 82 92c20.667 14.667 35.667 23.334 45 26.001c-3.33301 2 -6 4 -8 6c-7.33301 6 -15 13 -23 21c-22.667 24.667 -41.667 54.334 -57 89.001c-21.333 48.667 -32 101.667 -32 159v40l4 25
c11.333 94.667 43 172 95 232c64 74 156.333 119.333 277 136l31 3l33 1c64.667 0 125.334 -13.667 182.001 -41c43.333 -20.667 80.333 -46.334 111 -77.001l37 -42l32 -58c21.333 -46.667 32 -88.334 32 -125.001c0 -28.667 -6.66699 -54 -20 -76s-35.333 -39 -66 -51
s-58 -18 -82 -18l-25 1c-4.66699 0 -11.334 2.66699 -20.001 8s-17.334 12.333 -26.001 21c-6 7.33301 -14.667 24 -26 50l-20 52c-8 18.667 -16.333 32.667 -25 42c-25.333 28.667 -57.666 43 -96.999 43c-60.667 0 -104 -21 -130 -63c-15.333 -26.667 -23 -58.667 -23 -96
v-14c0 -11.333 0.666992 -20 2 -26s4.33301 -14.667 9 -26c7.33301 -18 21.666 -39.333 42.999 -64c14.667 -16.667 36 -35.334 64 -56.001h330l42 -7c12.667 -2 22.667 -5.33301 30 -10c48 -24 72 -66.333 72 -127c0 -60 -23.667 -102.667 -71 -128
c-11.333 -6 -35 -12.667 -71 -20l-415 2c-20 -2 -34.667 -5.33301 -44 -10c-30 -14 -45 -40.333 -45 -79c0 -38 14.667 -64.667 44 -80l45 -11l105 -3h146l162 -1c37.333 -5.33301 63.333 -12 78 -20c52.667 -25.333 79 -67 79 -125z" />
    <glyph glyph-name="ainfinal" unicode="&#x639;" horiz-adv-x="1110" arabic-form="final" 
d="M1110 0l-651.999 0.00195312c-15.333 0 -29.666 -3 -42.999 -9c-28.667 -14.667 -43 -41 -43 -79s14.333 -65.333 43 -82l16 -4l27 -7l138 -2l154 -1h123c37.333 -5.33301 63.333 -12 78 -20c52.667 -25.333 79 -67.333 79 -126c0 -59.333 -26.333 -101.333 -79 -126
c-15.333 -6.66699 -42 -13 -80 -19l-374 -2c-38 0 -69.667 2.33301 -95 7c-74 12 -135.333 38.333 -184 79c-66 54.667 -104.667 133.667 -116 237l-2 27v20c0 35.333 3.16699 66.833 9.5 94.5s17.833 54.5 34.5 80.5c20 34 47.333 64.333 82 91c24 18 38.667 27 44 27l-8 6
l-22 21c-24 25.333 -43 54.333 -57 87c-4.66699 10.667 -8.83398 21.834 -12.501 33.501s-7 24.667 -10 39s-5.16699 28 -6.5 41s-2 27.833 -2 44.5v40l4 27c11.333 94.667 42.666 171.667 93.999 231c64 74 156.667 119.333 278 136l65 4c66 0 126 -13.667 180 -41
c40 -20 76.667 -45.667 110 -77l37 -42l32 -58c22 -47.333 33 -89 33 -125c0 -28 -6 -52 -18 -72c-14 -20.667 -37 -37.834 -69 -51.501s-58.667 -20.5 -80 -20.5l-25 1c-4.66699 0 -11.167 2.16699 -19.5 6.5s-18.166 12.5 -29.499 24.5
c-2.66699 3.33301 -10.334 19.333 -23.001 48l-21 52c-7.33301 17.333 -15.333 31.666 -24 42.999c-24.667 28.667 -57 43 -97 43c-48 0 -85.5 -13.5 -112.5 -40.5s-40.5 -67.833 -40.5 -122.5v-14c0 -10 1.16699 -19.833 3.5 -29.5s6.5 -20.834 12.5 -33.501l15 -25l21 -26
l30 -25l36 -22h566v-204v-31v-54z" />
    <glyph glyph-name="aininitial" unicode="&#x639;" horiz-adv-x="1044" arabic-form="initial" 
d="M944 146c0 -60 -23.334 -102.331 -70.001 -126.998c-13.333 -8 -37 -14.333 -71 -19h-803v288h130l-20 54c-13.333 44 -20 80 -20 108v43c0 12 1.33301 29 4 51c0 10 0.166992 17 0.5 21s1.83301 10 4.5 18l22 68c22.667 50.667 56.667 97.334 102 140.001
c59.333 52 137 88.667 233 110l37 5l37 2c61.333 0 119.333 -15.333 174 -46c38.667 -22.667 74 -51.334 106 -86.001l36 -47l32 -49c6.66699 -12 13 -28.333 19 -49l5 -28l2 -30c0 -32.667 -5.66699 -60 -17 -82c-13.333 -26 -35 -44.833 -65 -56.5
s-55.667 -17.5 -77 -17.5c-32 0 -57.667 13 -77 39c-3.33301 4.66699 -8.66602 17.667 -15.999 39l-24 53c-7.33301 17.333 -15.333 31.666 -24 42.999c-25.333 29.333 -58.333 44 -99 44c-60 0 -103 -21 -129 -63c-15.333 -26.667 -23 -59.334 -23 -98.001v-15
c0 -42 19.667 -82.667 59 -122l16 -14l44 -33h329c30 -4 53.667 -10 71 -18c48 -24 72 -66 72 -126z" />
    <glyph glyph-name="ainmedial" unicode="&#x639;" horiz-adv-x="945" arabic-form="medial" 
d="M945 0l-944.998 -0.00292969v288h132l-20 53c-14 42 -21 77.667 -21 107v40l4 55c0 10 0.166992 17 0.5 21s1.83301 10 4.5 18l22 68c22.667 50.667 56.667 97.334 102 140.001c59.333 52.667 136.666 89 231.999 109l38 5l38 2c62.667 0 120.667 -15.333 174 -46
c40 -21.333 75 -50 105 -86l35 -46l6 -8l26 -41c16.667 -30 25 -65.333 25 -106c0 -31.333 -6 -59.166 -18 -83.499s-32 -43.166 -60 -56.499c-6.66699 -2.66699 -12.167 -4.66699 -16.5 -6s-12.833 -3.66602 -25.5 -6.99902l-37 -4c-34 0 -60 13 -78 39l-16 40l-22 53
c-8 19.333 -16.333 33.666 -25 42.999c-24.667 28.667 -57.334 43 -98.001 43c-62 0 -105.333 -20.667 -130 -62c-6.66699 -12.667 -12 -27.167 -16 -43.5s-6 -34.5 -6 -54.5v-16c0 -40 19.333 -80.667 58 -122c14 -15.333 33.667 -31.333 59 -48h473v-288z" />
    <glyph glyph-name="ghainisolated" unicode="&#x63a;" horiz-adv-x="1130" arabic-form="isolated" 
d="M669 1422c0 -42 -15 -77.999 -45 -107.999s-65.667 -45 -107 -45c-42 0 -77.833 15.167 -107.5 45.5s-44.5 66.166 -44.5 107.499c0 42 14.5 77.833 43.5 107.5s65.167 44.5 108.5 44.5c40 0 75.333 -14.833 106 -44.5s46 -65.5 46 -107.5zM1030 -328.999
c0 -60 -26.333 -102.333 -79 -127c-15.333 -6.66699 -42 -13 -80 -19l-375 -1v10h-16c-43.333 0 -84.333 5.33301 -123 16c-63.333 16 -116.666 45 -159.999 87c-53.333 52 -85 124.333 -95 217c0 12 -0.666992 20.333 -2 25v21c0 66.667 14.667 125.334 44 176.001
c20.667 35.333 48 66 82 92c20.667 14.667 35.667 23.334 45 26.001c-3.33301 2 -6 4 -8 6c-7.33301 6 -15 13 -23 21c-22.667 24.667 -41.667 54.334 -57 89.001c-21.333 48.667 -32 101.667 -32 159v40l4 25c11.333 94.667 43 172 95 232c64 74 156.333 119.333 277 136
l31 3l33 1c64.667 0 125.334 -13.667 182.001 -41c43.333 -20.667 80.333 -46.334 111 -77.001l37 -42l32 -58c21.333 -46.667 32 -88.334 32 -125.001c0 -28.667 -6.66699 -54 -20 -76s-35.333 -39 -66 -51s-58 -18 -82 -18l-25 1c-4.66699 0 -11.334 2.66699 -20.001 8
s-17.334 12.333 -26.001 21c-6 7.33301 -14.667 24 -26 50l-20 52c-8 18.667 -16.333 32.667 -25 42c-25.333 28.667 -57.666 43 -96.999 43c-60.667 0 -104 -21 -130 -63c-15.333 -26.667 -23 -58.667 -23 -96v-14c0 -11.333 0.666992 -20 2 -26s4.33301 -14.667 9 -26
c7.33301 -18 21.666 -39.333 42.999 -64c14.667 -16.667 36 -35.334 64 -56.001h330l42 -7c12.667 -2 22.667 -5.33301 30 -10c48 -24 72 -66.333 72 -127c0 -60 -23.667 -102.667 -71 -128c-11.333 -6 -35 -12.667 -71 -20l-415 2c-20 -2 -34.667 -5.33301 -44 -10
c-30 -14 -45 -40.333 -45 -79c0 -38 14.667 -64.667 44 -80l45 -11l105 -3h146l162 -1c37.333 -5.33301 63.333 -12 78 -20c52.667 -25.333 79 -67 79 -125z" />
    <glyph glyph-name="ghainfinal" unicode="&#x63a;" horiz-adv-x="1110" arabic-form="final" 
d="M763 1423c0 -40.667 -14.833 -76.335 -44.5 -107.002s-66.167 -46 -109.5 -46c-39.333 0 -74.666 15 -105.999 45c-29.333 30.667 -44 66.667 -44 108c0 42.667 14.667 78.834 44 108.501s64.666 44.5 105.999 44.5c40.667 0 76.5 -15.167 107.5 -45.5
s46.5 -66.166 46.5 -107.499zM1110 -0.000976562l-651.002 1.99805c-15.333 0 -29.666 -3 -42.999 -9c-29.333 -14 -44 -40.333 -44 -79c0 -39.333 14.333 -66.333 43 -81l16 -5l28 -6l105 -3h146l162 -1c20 -2.66699 35.833 -5.5 47.5 -8.5s22.167 -6.83301 31.5 -11.5
c52.667 -25.333 79 -67.333 79 -126c0 -59.333 -26.333 -101.333 -79 -126c-15.333 -6.66699 -42 -13 -80 -19l-375 -2c-38 0 -69.667 2.33301 -95 7c-74 12 -135 38 -183 78c-34 28 -61.833 62.833 -83.5 104.5s-32.5 87.834 -32.5 138.501
c0 8.66699 -0.666992 15.334 -2 20.001v21c0 35.333 3.16699 66.833 9.5 94.5s17.833 54.5 34.5 80.5c20 34 47.333 64.333 82 91c24 18 38.667 27 44 27l-8 6l-22 21c-24 26 -43.333 55.667 -58 89c-10 24.667 -17.667 50 -23 76s-8 53.333 -8 82v40l4 25
c11.333 95.333 42.666 172.666 93.999 231.999c62 74 154.667 119.333 278 136l32 3l34 1c66 0 126.333 -13.667 181 -41c40.667 -19.333 77 -45 109 -77l37 -42l32 -58c21.333 -46.667 32 -88.334 32 -125.001c0 -28 -6 -52 -18 -72
c-14 -23.333 -36.167 -41.166 -66.5 -53.499s-57.833 -18.5 -82.5 -18.5l-25 1c-4 0 -11 2.66699 -21 8s-18.167 12.333 -24.5 21s-15.166 25.334 -26.499 50.001l-21 51l-12 27c-24 40 -60 60 -108 60c-61.333 0 -104.666 -19.667 -129.999 -59c-16 -24 -24 -55 -24 -93
l1 -17c0 -17.333 3 -34.333 9 -51s20.333 -37.667 43 -63c11.333 -12 22 -22.5 32 -31.5s21 -17.5 33 -25.5h567v-289z" />
    <glyph glyph-name="ghaininitial" unicode="&#x63a;" horiz-adv-x="1044" arabic-form="initial" 
d="M605 1429c0 -40.667 -15.168 -76.5 -45.501 -107.5s-66.166 -46.5 -107.499 -46.5c-42 0 -77.833 15.167 -107.5 45.5s-44.5 66.5 -44.5 108.5c0 39.333 15.167 74.5 45.5 105.5s65.833 46.5 106.5 46.5c42 0 78 -15 108 -45s45 -65.667 45 -107zM943.999 146
c0 -60 -23.334 -102.331 -70.001 -126.998c-13.333 -8 -37 -14.333 -71 -19h-803v288h130l-20 54c-13.333 44 -20 80 -20 108v43c0 12 1.33301 29 4 51c0 10 0.166992 17 0.5 21s1.83301 10 4.5 18l22 68c22.667 50.667 56.667 97.334 102 140.001
c59.333 52 137 88.667 233 110l37 5l37 2c61.333 0 119.333 -15.333 174 -46c38.667 -22.667 74 -51.334 106 -86.001l36 -47l32 -49c6.66699 -12 13 -28.333 19 -49l5 -28l2 -30c0 -32.667 -5.66699 -60 -17 -82c-13.333 -26 -35 -44.833 -65 -56.5
s-55.667 -17.5 -77 -17.5c-32 0 -57.667 13 -77 39c-3.33301 4.66699 -8.66602 17.667 -15.999 39l-24 53c-7.33301 17.333 -15.333 31.666 -24 42.999c-25.333 29.333 -58.333 44 -99 44c-60 0 -103 -21 -129 -63c-15.333 -26.667 -23 -59.334 -23 -98.001v-15
c0 -42 19.667 -82.667 59 -122l16 -14l44 -33h329c30 -4 53.667 -10 71 -18c48 -24 72 -66 72 -126z" />
    <glyph glyph-name="ghainmedial" unicode="&#x63a;" horiz-adv-x="945" arabic-form="medial" 
d="M608 1430c0 -42 -15 -77.999 -45 -107.999s-65.667 -45 -107 -45c-39.333 0 -74.5 15.167 -105.5 45.5s-46.5 66.166 -46.5 107.499c0 42 14.833 77.833 44.5 107.5s65.5 44.5 107.5 44.5c40 0 75.333 -14.833 106 -44.5s46 -65.5 46 -107.5zM945 0.000976562
l-944.999 -0.00292969v289h132l-20 52c-14 42 -21 77.667 -21 107v40l4 55c0 10 0.166992 17 0.5 21s1.83301 10 4.5 18l22 68c22.667 50.667 56.667 97.334 102 140.001c59.333 52.667 136.666 89 231.999 109l38 5l38 2c62.667 0 120.667 -15.333 174 -46
c40 -21.333 75 -50 105 -86l35 -46l6 -8l26 -41c16.667 -30 25 -65.333 25 -106c0 -31.333 -6 -59.166 -18 -83.499s-32 -43.166 -60 -56.499c-6.66699 -2.66699 -12.167 -4.66699 -16.5 -6s-12.833 -3.66602 -25.5 -6.99902l-37 -4c-34 0 -60 13 -78 39l-16 40l-22 53
c-8 19.333 -16.333 33.666 -25 42.999c-24.667 28.667 -57.334 43 -98.001 43c-62 0 -105.333 -20.667 -130 -62c-6.66699 -12.667 -12 -27.167 -16 -43.5s-6 -34.5 -6 -54.5v-16c0 -42 19.333 -82.667 58 -122c10.667 -10 30.334 -25.667 59.001 -47h473v-289z" />
    <glyph glyph-name="fehisolated" unicode="&#x641;" horiz-adv-x="2336" arabic-form="isolated" 
d="M2007 1402c0 -42 -14.667 -77.167 -44 -105.5s-65 -42.5 -107 -42.5c-40.667 0 -75.5 15.167 -104.5 45.5s-43.5 64.5 -43.5 102.5c0 41.333 14.667 76.833 44 106.5s64 44.5 104 44.5c41.333 0 76.833 -14.667 106.5 -44s44.5 -65 44.5 -107zM2235 578l-3 -94.001
l-3 -86l-5 -81l-4 -27c0 -10.667 -0.666992 -17 -2 -19c0 -6 -2 -13 -6 -21c-3.33301 -13.333 -8 -27 -14 -41s-15 -31.333 -27 -52c-20 -38 -44.667 -68.333 -74 -91c-22 -19.333 -44.667 -34 -68 -44l-34 -12l-39 -4l-74 -6h-554h-844h-26l-22 4l-23 4l-29 7
c-74 18 -135.667 53.667 -185 107c-66.667 72.667 -100 170.334 -100 293.001s33.333 219.667 100 291c42.667 47.333 104.334 83 185.001 107c46.667 10.667 80 16 100 16h461c9.33301 0 23.833 -2.5 43.5 -7.5s39.167 -16.5 58.5 -34.5c24 -25.333 36 -58.333 36 -99
c0 -41.333 -11.667 -74.666 -35 -99.999c-14 -15.333 -35.333 -28 -64 -38c-12 -3.33301 -24 -5 -36 -5h-432l-12 -1l-23 -4c-26 -6 -47.667 -17.667 -65 -35c-24 -23.333 -36 -55.333 -36 -96c0 -34.667 13 -64 39 -88c14.667 -12.667 38 -23 70 -31l39 -3h800h484
c80 0 129.333 37.667 148 113l-62 -14l-61 -5c-108 0 -200.5 38.333 -277.5 115s-115.5 169.667 -115.5 279c0 108 38.667 200.833 116 278.5s169.666 116.5 276.999 116.5c90.667 0 170 -27.333 238 -82s115 -125.334 141 -212.001l8 -35l6 -96l3 -79l1 -50zM1965 796.999
c0 35.333 -13.168 66.666 -39.501 93.999s-57.833 41 -94.5 41c-36 0 -67 -13.167 -93 -39.5s-39 -58.166 -39 -95.499c0 -36 12.333 -67.667 37 -95c28.667 -26.667 60.334 -40 95.001 -40c36 0 67.333 13.333 94 40c14 14 24.167 28.833 30.5 44.5s9.5 32.5 9.5 50.5z" />
    <glyph glyph-name="fehfinal" unicode="&#x641;" horiz-adv-x="2262" arabic-form="final" 
d="M1874 1436c0 -42 -14.666 -77.668 -43.999 -107.001s-65 -44 -107 -44c-42.667 0 -78.834 14.667 -108.501 44s-44.5 65 -44.5 107s15 78 45 108s66 45 108 45s77.667 -14.667 107 -44s44 -65.666 44 -108.999zM2262 -0.000976562l-1768 0.00292969c-30 0 -64 5 -102 15
c-78 20 -141.333 56.333 -190 109c-68 72 -102 171.333 -102 298c0 125.333 33.667 224 101 296c46.667 50.667 109.667 87 189 109c44 10.667 78.333 16 103 16h469c30 -4 53 -10 69 -18c46.667 -24.667 70 -66.667 70 -126c0 -60 -22.333 -103 -67 -129
c-10.667 -6 -33.334 -12.667 -68.001 -20l-433 2c-6.66699 0 -14 -0.666992 -22 -2s-16.167 -2.83301 -24.5 -4.5s-17.166 -4.83398 -26.499 -9.50098c-48.667 -22 -73 -62.333 -73 -121c0 -52.667 24.667 -90.334 74 -113.001c12.667 -4.66699 37.334 -10 74.001 -16h811
l-14 52c-10 43.333 -15 80.666 -15 111.999l3 52c0.666992 7.33301 2 16 4 26s4.33301 20 7 30c2 12 7 28 15 48c13.333 28 25 48.667 35 62c30 46 62 82 96 108s78 48 132 66l67 16l25 2l26 1c32.667 0 63 -2.16699 91 -6.5s58 -13.5 90 -27.5
c17.333 -7.33301 36.666 -18.333 57.999 -33s42 -32.334 62 -53.001c15.333 -15.333 31.333 -33.666 48 -54.999l33 -59c23.333 -48 37.333 -92.333 42 -133l3 -49c0 -36 -6 -73.667 -18 -113l-18 -43h144v-289zM1874 454.002c-6 28 -12.998 49.001 -20.998 63.001
c-24.667 42.667 -62.667 64 -114 64c-20.667 0 -38.5 -3.16699 -53.5 -9.5s-28.167 -14.833 -39.5 -25.5c-12.667 -14.667 -24.334 -35.667 -35.001 -63l-7 -33c4 -30.667 9.66699 -53.334 17 -68.001c22 -45.333 59.667 -68 113 -68c21.333 0 39.666 2.83301 54.999 8.5
s30.333 14.834 45 27.501c15.333 15.333 27 37.666 35 66.999z" />
    <glyph glyph-name="fehinitial" unicode="&#x641;" arabic-form="initial" 
d="M692 1426c0 -42 -14.833 -77.834 -44.5 -107.501s-65.5 -44.5 -107.5 -44.5s-77.833 15.167 -107.5 45.5s-44.5 65.833 -44.5 106.5c0 42 15 78 45 108s65.667 45 107 45c39.333 0 74.5 -15.167 105.5 -45.5s46.5 -66.166 46.5 -107.499zM924 588.999l-2.99902 -96
l-3 -88l-6 -83l-3 -26l-1 -18c0 -4.66699 -2.33301 -12.667 -7 -24l-16 -42l-25 -52c-20 -36.667 -45.333 -67.667 -76 -93c-22.667 -18.667 -46 -33.667 -70 -45c-26.667 -10.667 -51 -16 -73 -16l-76 -6h-565v289h493c84 0 134.333 39.333 151 118l-62 -15l-41 -5h-22
c-110 0 -204 39 -282 117s-117 173 -117 285c0 110 39.167 204.167 117.5 282.5s172.166 117.5 281.499 117.5c90.667 0 171.167 -27.833 241.5 -83.5s118.5 -127.167 144.5 -214.5l7 -36l7 -98l2 -92zM650.001 793.999c0 36 -13.168 67.833 -39.501 95.5
s-58.833 41.5 -97.5 41.5c-37.333 0 -69.166 -13.667 -95.499 -41s-39.5 -59.333 -39.5 -96c0 -35.333 13 -66.833 39 -94.5s58 -41.5 96 -41.5s70.333 13.667 97 41s40 59 40 95z" />
    <glyph glyph-name="fehmedial" unicode="&#x641;" horiz-adv-x="1058" arabic-form="medial" 
d="M695 1427c0 -46 -16.333 -85.335 -49 -118.002s-72.667 -49 -120 -49c-46 0 -85.333 16.333 -118 49s-49 72 -49 118c0 44.667 16 83.834 48 117.501s71.667 50.5 119 50.5c46 0 85.667 -16.167 119 -48.5s50 -72.166 50 -119.499zM1058 -0.00195312l-1058 0.000976562
v289h144l-14 51c-10 42 -15 78.667 -15 110l3 52c0.666992 7.33301 2 16 4 26s4.33301 20 7 30c2 12 7 28 15 48l36 62c28.667 44 61 80.667 97 110c32.667 24.667 76 46 130 64l67 16l23 2l27 1c30.667 0 60.334 -2.16699 89.001 -6.5s59 -13.5 91 -27.5
c17.333 -7.33301 36.666 -18.333 57.999 -33s42 -32.334 62 -53.001c15.333 -15.333 31.333 -33.666 48 -54.999l33 -58c24 -46.667 38.333 -91.334 43 -134.001l3 -47c0 -38.667 -6 -77 -18 -115c-4 -12.667 -10.333 -27 -19 -43h144v-289zM663 445.999
c-5.33301 28.667 -12.0029 49.3311 -20.0029 61.998c-24 42 -62 63 -114 63c-19.333 0 -36.166 -2.66699 -50.499 -8s-29.166 -14.666 -44.499 -27.999c-14 -14 -25.333 -34.667 -34 -62l-8 -34c4 -28 10 -50 18 -66c22.667 -44.667 60.667 -67 114 -67
c19.333 0 37.333 3 54 9s30.667 14.667 42 26c16.667 14.667 29.334 37.334 38.001 68.001z" />
    <glyph glyph-name="qafisolated" unicode="&#x642;" horiz-adv-x="1583" arabic-form="isolated" 
d="M1424 1425c0 -39.333 -15.168 -74.501 -45.501 -105.501s-66.166 -46.5 -107.499 -46.5c-42 0 -77.833 15.167 -107.5 45.5s-44.5 65.833 -44.5 106.5c0 42.667 14.667 78.834 44 108.501s65.333 44.5 108 44.5c42 0 78 -15 108 -45s45 -66 45 -108zM1047 1425
c0 -42 -15.3311 -77.833 -45.998 -107.5s-66.334 -44.5 -107.001 -44.5c-42 0 -77.667 14.667 -107 44s-44 65.333 -44 108s14.667 78.834 44 108.501s65 44.5 107 44.5c39.333 0 74.666 -14.833 105.999 -44.5s47 -65.834 47 -108.501zM1483 569.999l-2.99902 -160.998
l-6 -120c0 -18 -1.66699 -33.333 -5 -46c-2 -14 -6.33301 -28 -13 -42c-16 -37.333 -42 -74 -78 -110s-79.333 -62.667 -130 -80l-63 -11h-655c-75.333 0 -132 4 -170 12c-58.667 12 -110 38.667 -154 80s-75 98.333 -93 171l-13 97v432c4 34 10 60 18 78
c25.333 52.667 69.333 79 132 79c61.333 0 105.666 -26 132.999 -78c6.66699 -14.667 13 -41 19 -79v-384l4 -35c4 -26.667 12.667 -45.834 26 -57.501s34.333 -19.5 63 -23.5l37 -2h517h34c20 0 37.333 2 52 6s28.334 13.333 41.001 28
c7.33301 9.33301 13.666 21.666 18.999 36.999l7 38v7l-1 5l-39 -12c-41.333 -8.66699 -75.666 -13 -102.999 -13c-45.333 0 -86 5.66699 -122 17c-48 14 -92.667 36.833 -134 68.5s-73.833 75.834 -97.5 132.501s-35.5 115 -35.5 175c0 110 32.333 203.667 97 281
c73.333 86.667 175 130 305 130c86.667 0 161 -20.667 223 -62c45.333 -29.333 85.666 -73.333 120.999 -132c22.667 -38.667 39.667 -78.334 51 -119.001l5 -29l2 -29l6 -107zM1208 792.001c0 38 -13.833 71.001 -41.5 99.001s-61.167 42 -100.5 42
c-37.333 0 -70.333 -13.833 -99 -41.5s-43 -60.834 -43 -99.501c0 -38 14.167 -70.667 42.5 -98s61.5 -41 99.5 -41c39.333 0 72.833 13.5 100.5 40.5s41.5 59.833 41.5 98.5z" />
    <glyph glyph-name="qaffinal" unicode="&#x642;" horiz-adv-x="1618" arabic-form="final" 
d="M1422 1426c0 -42 -14.833 -77.833 -44.5 -107.5s-65.5 -44.5 -107.5 -44.5s-77.833 15.167 -107.5 45.5s-44.5 65.833 -44.5 106.5c0 42 14.833 77.833 44.5 107.5s65.5 44.5 107.5 44.5c40 0 75.333 -14.833 106 -44.5s46 -65.5 46 -107.5zM1045 1426
c0 -39.333 -15.167 -74.5 -45.5 -105.5s-65.833 -46.5 -106.5 -46.5c-42 0 -77.833 15.167 -107.5 45.5s-44.5 65.833 -44.5 106.5c0 39.333 15.167 74.5 45.5 105.5s65.833 46.5 106.5 46.5c40 0 75.333 -14.833 106 -44.5s46 -65.5 46 -107.5zM1616 0l-1085 0.000976562
c-75.333 0 -132.666 4 -171.999 12c-58.667 12 -109.667 38.333 -153 79c-26.667 24.667 -51.334 62.667 -74.001 114c-10.667 28 -20.334 63.333 -29.001 106l-5 48v433c4 34 10 60 18 78c24 52.667 67 79 129 79s106.667 -26 134 -78c6.66699 -14.667 13 -41 19 -79v-388
l3 -34c4 -26 13 -45 27 -57s35 -20 63 -24l37 -2h518h33c19.333 0 36.166 2 50.499 6s28.5 13.333 42.5 28c12 14.667 20.333 34.334 25 59.001l1 28l-39 -12l-50 -9l-51 -4c-22.667 0 -44.334 1.33301 -65.001 4s-40 7 -58 13c-47.333 14 -91.833 36.833 -133.5 68.5
s-74.667 75.667 -99 132s-36.5 115.166 -36.5 176.499c0 110.667 32.333 203.667 97 279c74.667 86.667 176.667 130 306 130c84.667 0 158.334 -20.667 221.001 -62c44.667 -30 85.334 -74 122.001 -132c20 -34.667 36.667 -74.334 50 -119.001l5 -33l3 -25v-175v-193v-158
h146v-289zM1197 795.001c0 38 -14.001 70.999 -42.001 98.999s-61.333 42 -100 42c-39.333 0 -73 -13.667 -101 -41s-42 -60.666 -42 -99.999c0 -36 14 -68.667 42 -98c28.667 -27.333 62.334 -41 101.001 -41s72 13.667 100 41s42 60 42 98z" />
    <glyph glyph-name="qafinitial" unicode="&#x642;" arabic-form="initial" 
d="M865 1430c0 -42 -14.832 -77.833 -44.499 -107.5s-65.834 -44.5 -108.501 -44.5c-40 0 -75.667 14.667 -107 44c-30 31.333 -45 67.333 -45 108c0 40 15 76 45 108c30.667 29.333 66.334 44 107.001 44c43.333 0 79.666 -14.667 108.999 -44s44 -65.333 44 -108z
M488.001 1430c0 -42 -15 -78 -45 -108c-15.333 -14.667 -32 -25.667 -50 -33s-37.333 -11 -58 -11c-42 0 -77.833 15.167 -107.5 45.5s-44.5 65.833 -44.5 106.5c0 42 14.5 77.833 43.5 107.5s65.167 44.5 108.5 44.5c42 0 78 -14.833 108 -44.5s45 -65.5 45 -107.5z
M924.001 589l-2.99902 -96l-3 -88l-6 -83l-3 -26l-1 -18c0 -4.66699 -2.33301 -12.667 -7 -24l-16 -42l-25 -52c-20 -36.667 -45.333 -67.667 -76 -93c-22.667 -18.667 -46 -33.667 -70 -45c-26.667 -10.667 -51 -16 -73 -16l-76 -6h-565v289h493
c84 0 134.333 39.333 151 118l-62 -15l-41 -5h-22c-110 0 -204 39 -282 117s-117 173 -117 285c0 110 39.167 204.167 117.5 282.5s172.166 117.5 281.499 117.5c90.667 0 171.167 -27.833 241.5 -83.5s118.5 -127.167 144.5 -214.5l7 -36l7 -98l2 -92zM650.002 794
c0 36 -13.168 67.833 -39.501 95.5s-58.833 41.5 -97.5 41.5c-37.333 0 -69.166 -13.667 -95.499 -41s-39.5 -59.333 -39.5 -96c0 -35.333 13 -66.833 39 -94.5s58 -41.5 96 -41.5s70.333 13.667 97 41s40 59 40 95z" />
    <glyph glyph-name="qafmedial" unicode="&#x642;" horiz-adv-x="1058" arabic-form="medial" 
d="M872 1427c0 -42 -15.333 -77.833 -46 -107.5s-66.667 -44.5 -108 -44.5c-42 0 -77.833 15.167 -107.5 45.5s-44.5 65.833 -44.5 106.5c0 39.333 15.167 74.5 45.5 105.5s65.833 46.5 106.5 46.5c42 0 78.167 -14.833 108.5 -44.5s45.5 -65.5 45.5 -107.5zM494 1427
c0 -42 -14.833 -77.833 -44.5 -107.5s-66.167 -44.5 -109.5 -44.5c-42 0 -77.833 15.167 -107.5 45.5s-44.5 65.833 -44.5 106.5c0 39.333 15.167 74.5 45.5 105.5s65.833 46.5 106.5 46.5c42.667 0 79 -14.667 109 -44s45 -65.333 45 -108zM1058 0l-1058 0.000976562v289
h144l-14 51c-10 42 -15 78.667 -15 110l3 52c0.666992 7.33301 2 16 4 26s4.33301 20 7 30c2 12 7 28 15 48l36 62c28.667 44 61 80.667 97 110c32.667 24.667 76 46 130 64l67 16l23 2l27 1c30.667 0 60.334 -2.16699 89.001 -6.5s59 -13.5 91 -27.5
c17.333 -7.33301 36.666 -18.333 57.999 -33s42 -32.334 62 -53.001c15.333 -15.333 31.333 -33.666 48 -54.999l33 -58c24 -46.667 38.333 -91.334 43 -134.001l3 -47c0 -38.667 -6 -77 -18 -115c-4 -12.667 -10.333 -27 -19 -43h144v-289zM663 446.001
c-5.33301 28.667 -12.0029 49.3311 -20.0029 61.998c-24 42 -62 63 -114 63c-19.333 0 -36.166 -2.66699 -50.499 -8s-29.166 -14.666 -44.499 -27.999c-14 -14 -25.333 -34.667 -34 -62l-8 -34c4 -28 10 -50 18 -66c22.667 -44.667 60.667 -67 114 -67
c19.333 0 37.333 3 54 9s30.667 14.667 42 26c16.667 14.667 29.334 37.334 38.001 68.001z" />
    <glyph glyph-name="kafisolated" unicode="&#x643;" horiz-adv-x="1536" arabic-form="isolated" 
d="M847 1052c0 -54.667 -21.665 -93.6689 -64.998 -117.002c-12 -5.33301 -33.667 -11.666 -65 -18.999h-277c-10.667 0 -19.334 1.66699 -26.001 5c-17.333 8 -26 22.667 -26 44c0 18 8.66699 31.333 26 40l26 5h280c8.66699 0 14.667 1.33301 18 4
c12.667 6.66699 19 17.334 19 32.001c0 16 -8.33301 27 -25 33l-12 2h-220c-28 4 -48.667 10.333 -62 19c-42 24 -63 62.667 -63 116c0 51.333 20.333 88.333 61 111c11.333 5.33301 31.666 11.666 60.999 18.999h247c17.333 -2 29.333 -5.33301 36 -10
c12 -8 18 -20.667 18 -38c0 -18 -9 -32.667 -27 -44l-27 -8h-228l-21 -3c-14.667 -5.33301 -22 -15.666 -22 -30.999c0 -14.667 7 -26 21 -34l22 -6l201 -2c14 0 25.667 -1 35 -3c8 -0.666992 18 -3.66699 30 -9c43.333 -18 65 -53.333 65 -106zM1436 317.998l-1 -59.9971
c0 -25.333 -5.33301 -52 -16 -80c-14 -35.333 -36.333 -70 -67 -104c-16.667 -18.667 -40.667 -35.334 -72 -50.001c-10 -3.33301 -20 -6.33301 -30 -9s-24 -6 -42 -10l-44 -4l-48 -1h-647c-31.333 0 -63 4.66699 -95 14c-73.333 20 -132.666 55.667 -177.999 107
c-64 72 -96 170 -96 294c0 119.333 31.667 213.666 95 282.999c46 50 105.333 85 178 105c36 10 68 15 96 15h353c30 -4 52.667 -9.33301 68 -16c45.333 -21.333 68 -59.333 68 -114c0 -55.333 -22.667 -94.333 -68 -117c-10 -5.33301 -32.667 -11 -68 -17v5h-308
c-26.667 0 -49.334 -5.33301 -68.001 -16c-45.333 -22 -68 -60.667 -68 -116c0 -56 22.667 -95.333 68 -118c10 -5.33301 32.667 -11 68 -17h565c10 0 17 0.666992 21 2c7.33301 0 14 3.16699 20 9.5s10.333 16.166 13 29.499l2 17v1104c4 30.667 10 55 18 73
c25.333 48.667 69.666 73 132.999 73c60.667 0 104.334 -24.333 131.001 -73c6.66699 -14 13 -38.333 19 -73v-1136z" />
    <glyph glyph-name="arabickaffinal" unicode="&#x643;" horiz-adv-x="1568" arabic-form="final" 
d="M845 1050c0 -56 -21.3311 -95.334 -63.998 -118.001c-14 -7.33301 -35.667 -13.333 -65 -18h-277c-11.333 0 -19.666 1.66699 -24.999 5c-17.333 8 -26 22.333 -26 43c0 18.667 8.33301 32.334 25 41.001l26 5h279l19 3c13.333 5.33301 20 16 20 32s-8.66699 27 -26 33
l-13 2h-218c-28.667 5.33301 -49.334 12 -62.001 20c-42 24 -63 62.667 -63 116c0 48.667 20.333 85.334 61 110.001c11.333 5.33301 31.666 11.666 60.999 18.999h245l17 -1c26 -6 39 -21.333 39 -46c0 -20 -9.33301 -35 -28 -45l-28 -8h-226l-21 -3
c-14.667 -5.33301 -22 -15.333 -22 -30c0 -14 7 -25.667 21 -35l22 -5l201 -3c13.333 0 24.666 -1 33.999 -3c8 -0.666992 18 -3.66699 30 -9c42.667 -18 64 -53 64 -105zM1568 -0.000976562l-1102 0.000976562c-15.333 0 -30.666 1 -45.999 3s-31.333 5.66699 -48 11
c-72 20 -130.667 55.667 -176 107c-64 72 -96 170 -96 294c0 120 31.333 214.667 94 284c45.333 50 103.666 85 174.999 105c36 10 67.667 15 95 15h353l38 -6c10.667 -2 20.334 -5.33301 29.001 -10c45.333 -22 68 -61 68 -117c0 -54 -22.333 -92.333 -67 -115
c-10 -5.33301 -32.667 -11 -68 -17h-307c-26.667 0 -49.334 -5.33301 -68.001 -16c-46 -22 -69 -60.667 -69 -116c0 -56 22.667 -95.667 68 -119c10 -4.66699 33 -10.334 69 -17.001h563c10 0 17.833 0.666992 23.5 2s11.334 4.83301 17.001 10.5s10.5 15.167 14.5 28.5
l2 17v1106c4 32 10 56 18 72c25.333 48.667 69.333 73 132 73c61.333 0 105.666 -24 132.999 -72c6.66699 -14 13 -38.333 19 -73v-1161h136v-289z" />
    <glyph glyph-name="kafinitial" unicode="&#x643;" horiz-adv-x="1796" arabic-form="initial" 
d="M1696 484c0 -118.667 -22.668 -219 -68.001 -301c-58 -104 -146.667 -165 -266 -183h-1362v289h1254c36 0 68 8.66699 96 26c40 24 60 59.333 60 106c0 60.667 -19 101 -57 121l-26 3l-34 8h-910c-15.333 0 -34.666 2 -57.999 6c-44.667 8 -82 22.667 -112 44
c-42 30 -67.333 70.667 -76 122l-4 49c0 63.333 22 121.666 66 174.999c14 16 36 35 66 57l513 308l31 16c28 10.667 52 16 72 16l31 -3c4 -0.666992 8.66699 -2 14 -4s10 -4.33301 14 -7c18 -8 34.5 -24.333 49.5 -49s22.5 -49.667 22.5 -75c0 -32.667 -11.667 -63 -35 -91
c-5.33301 -7.33301 -17.333 -18.666 -36 -33.999l-409 -239h766l16 1c52.667 0 100.667 -9.66699 144 -29c77.333 -32 139.333 -88.667 186 -170c34.667 -63.333 52 -117.333 52 -162z" />
    <glyph glyph-name="kafmedial" unicode="&#x643;" horiz-adv-x="1840" arabic-form="medial" 
d="M1840 0h-1840v289h1259c34.667 0 68 10 100 30c38 25.333 57 60.666 57 105.999c0 51.333 -14.667 87.666 -44 108.999c-18.667 13.333 -40.667 20 -66 20l-9 -1h-909c-15.333 0 -34.666 2 -57.999 6c-44.667 8 -82 22.667 -112 44
c-41.333 28.667 -67 69.334 -77 122.001l-4 49c0 64.667 22 123 66 175c14.667 16.667 37 35.667 67 57l512 308l31 16c14.667 6 27.334 10.167 38.001 12.5s22.334 3.5 35.001 3.5c22.667 0 42 -4.66699 58 -14c18 -8 34.5 -24.5 49.5 -49.5s22.5 -49.833 22.5 -74.5
c0 -32.667 -11.667 -63 -35 -91c-5.33301 -7.33301 -17.333 -18.666 -36 -33.999l-408 -239h764l16 1c16 0 30 -0.666992 42 -2s26.333 -4 43 -8c45.333 -10 86.333 -28 123 -54c44.667 -31.333 85.334 -76.333 122.001 -135c20 -34 35 -68.833 45 -104.5
s15 -68.167 15 -97.5c0 -10 -0.333008 -19.833 -1 -29.5s-2.16699 -21 -4.5 -34s-8.16602 -29.5 -17.499 -49.5c-4 -11.333 -11.667 -25 -23 -41h179v-290z" />
    <glyph glyph-name="lamisolated" unicode="&#x644;" horiz-adv-x="1159" arabic-form="isolated" 
d="M1059 -2l-17.9971 -117.998c-24 -88.667 -66 -162 -126 -220c-84.667 -79.333 -199.334 -119 -344.001 -119c-139.333 0 -249.666 39.333 -330.999 118c-58 57.333 -99 130.666 -123 219.999l-17 119v411c4 32.667 10.667 56 20 70c28 47.333 76.667 71 146 71
c57.333 0 97.333 -23.333 120 -70c5.33301 -11.333 11 -35 17 -71v-411c4 -34 11 -60.667 21 -80c29.333 -53.333 80.666 -80 153.999 -80c72 0 123.667 26 155 78c7.33301 15.333 14.666 41.666 21.999 78.999v1443c0 18 2.33301 33 7 45c20 66 68.333 99 145 99
c61.333 0 105.666 -24 132.999 -72c6.66699 -14 13 -38.333 19 -73v4v-1443z" />
    <glyph glyph-name="lamfinal" unicode="&#x644;" horiz-adv-x="1190" arabic-form="final" 
d="M1190 0l-133.999 0.00195312l-18 -119c-24 -88 -66 -161.667 -126 -221c-84.667 -79.333 -199.334 -119 -344.001 -119c-138 0 -247.667 39.333 -329 118c-55.333 55.333 -95.666 128.666 -120.999 219.999l-18 119v411c4 32.667 10.667 56 20 70
c27.333 47.333 75.333 71 144 71c57.333 0 97.333 -23.333 120 -70c5.33301 -11.333 11 -35 17 -71v-411c4 -34 11 -60.667 21 -80c28 -53.333 79 -80 153 -80c72.667 0 125 26 157 78c8 13.333 15.667 39.666 23 78.999v1443c0 18 2.33301 33 7 45c20 66 67.333 99 142 99
c61.333 0 105.666 -24 132.999 -72c6.66699 -14 13 -38.333 19 -73v-1148h134v-289z" />
    <glyph glyph-name="laminitial" unicode="&#x644;" horiz-adv-x="535" arabic-form="initial" 
d="M435 286c0 -102 -29.666 -176.334 -88.999 -223.001c-53.333 -42 -133 -63 -239 -63h-107v289h85c16 2 28.667 7 38 15c6.66699 8.66699 10 21.334 10 38.001v1099c4 32 10 56 18 72c25.333 48.667 69.666 73 132.999 73c62 0 106 -24 132 -72
c6.66699 -14 13 -38.333 19 -73v-1155z" />
    <glyph glyph-name="lammedial" unicode="&#x644;" horiz-adv-x="568" arabic-form="medial" 
d="M568 0h-567.999v289h139v1152c4 32 10 56 18 72c25.333 48 69.666 72 132.999 72c60 0 103.667 -24 131 -72c6.66699 -14 13 -38 19 -72v-1152h128v-289z" />
    <glyph glyph-name="meemisolated" unicode="&#x645;" horiz-adv-x="1467" arabic-form="isolated" 
d="M978 -3l-9.99902 -0.000976562l-27 4h-21l-17 4l-17 4l-34 10c-34.667 8 -71.334 22 -110.001 42l-25 13c-7.33301 4 -16 10 -26 18c-15.333 12 -30.666 28 -45.999 48c-34 42 -57.333 84.667 -70 128l-17 60l-9 56l-1 29v27v14l2 14l6 32l-39 -20
c-24 -13.333 -49.333 -37 -76 -71c-5.33301 -7.33301 -10.833 -16.666 -16.5 -27.999l-15.5 -30c-9.33301 -22.667 -17.333 -48 -24 -76c-4 -19.333 -6 -40 -6 -62c0 -22.667 1.83301 -45.667 5.5 -69s6.33398 -38.333 8.00098 -45s5.83398 -21 12.501 -43
c18 -60 50 -105.833 96 -137.5s93 -54 141 -67s91 -19.5 129 -19.5l55 1h23c16 0 32.833 -3 50.5 -9s35 -19.333 52 -40s25.5 -48.334 25.5 -83.001c0 -18 -1.66699 -31.333 -5 -40c-2 -10.667 -7.33301 -20.667 -16 -30c-12 -16 -28 -30 -48 -42l-21 -9l-28 -11l-23 -6
l-47 -5l-64 1h-21h-17l-22 3l-26 4l-49 9c-20 4 -47.333 12 -82 24c-60.667 20 -118 52.667 -172 98c-74.667 61.333 -130.334 131.333 -167.001 210c-16.667 36 -30.5 73.667 -41.5 113s-18.833 77.666 -23.5 114.999l-3 36l-1 40l3 67
c1.33301 14.667 2.66602 26.334 3.99902 35.001s3.66602 19 6.99902 31c14 63.333 32 114.333 54 153c55.333 97.333 127 176.333 215 237s176.333 96 265 106l135 9h59h48l53 -3c26.667 0 52.834 -2.66699 78.501 -8s53.834 -13.333 84.501 -24c50 -16 93.667 -43 131 -81
c48 -44 81 -93.333 99 -148l12 -36l10 -37l7 -36l2 -35v-16v-14c0 -35.333 -2.33301 -62.666 -7 -81.999l-9 -44c-30 -101.333 -82 -174 -156 -218c-36.667 -20.667 -73.834 -37.5 -111.501 -50.5s-72.834 -19.5 -105.501 -19.5zM960.001 555.999
c-38.667 0 -71.5 -13.333 -98.5 -40s-40.5 -58.667 -40.5 -96s13.833 -69.5 41.5 -96.5s60.167 -40.5 97.5 -40.5s69.666 13 96.999 39s41 58.667 41 98c0 36 -13.167 67.667 -39.5 95s-59.166 41 -98.499 41z" />
    <glyph glyph-name="meemfinal" unicode="&#x645;" horiz-adv-x="1498" arabic-form="final" 
d="M1498 0l-523.998 -0.000976562l-36 4c-13.333 0 -29 2.33301 -47 7l-43 11c-30.667 7.33301 -67.334 21.333 -110.001 42c-36 19.333 -68 45.333 -96 78c-32 44 -55.333 86.667 -70 128l-16 57l-10 60c0 12 -0.666992 20.667 -2 26v21l3 37l5 32l-38 -21
c-24 -12 -49.333 -35.333 -76 -70c-10.667 -14.667 -21 -33.667 -31 -57s-18.333 -49 -25 -77l-5 -30l-2 -33c0 -42 9 -93.667 27 -155s50.333 -108.333 97 -141c22 -15.333 45 -28.5 69 -39.5s48 -19.833 72 -26.5c48 -12 90.333 -18 127 -18l56 2h23c14 0 30 -3 48 -9
s35.667 -19.667 53 -41c18 -20 27 -47.667 27 -83c0 -25.333 -7 -48.666 -21 -69.999l-24 -24c-2 -2 -5.16699 -4.5 -9.5 -7.5s-9.16602 -6.16699 -14.499 -9.5l-25 -12l-25 -9l-22 -6h-13l-25 -3l-27 -2l-21 -1c-22 0 -49 2 -81 6c-17.333 0 -29.833 0.5 -37.5 1.5
s-18.167 3.16699 -31.5 6.5c-22.667 5.33301 -53.334 14.666 -92.001 27.999c-29.333 10 -58.833 23.333 -88.5 40s-57.5 36 -83.5 58c-74.667 60 -131.334 130 -170.001 210c-20.667 46.667 -35.667 85 -45 115c-12 39.333 -18 77.333 -18 114v55v51v21
c0 6.66699 0.666992 14 2 22l9 59c8 34 16 63 24 87s18 46 30 66c56 97.333 127.833 176.333 215.5 237s176.167 96 265.5 106l134 10l97 -2l61 -1c25.333 0 52 -3 80 -9c16 -3.33301 42.667 -11.333 80 -24c52 -17.333 97.333 -43.666 136 -78.999
c48.667 -47.333 81.667 -97 99 -149c8 -23.333 15.333 -49.333 22 -78l6 -34l2 -34v-16v-14c0 -28 -2 -54.667 -6 -80l-9 -45h150v-288zM954.002 557.999c-37.333 0 -70 -14 -98 -42c-14 -14 -24.167 -28.5 -30.5 -43.5s-9.5 -32.167 -9.5 -51.5
c0 -35.333 13 -66.833 39 -94.5s59 -41.5 99 -41.5c36.667 0 68.834 13 96.501 39s41.5 58.333 41.5 97c0 38 -13.333 70.333 -40 97s-59.334 40 -98.001 40z" />
    <glyph glyph-name="meeminitial" unicode="&#x645;" horiz-adv-x="1067" arabic-form="initial" 
d="M542 574c-37.333 0 -69.502 -13.333 -96.502 -40s-40.5 -59 -40.5 -97s13.5 -70.333 40.5 -97s59.167 -40 96.5 -40c36.667 0 68.834 13 96.501 39s41.5 58.667 41.5 98c0 37.333 -13.167 69.5 -39.5 96.5s-59.166 40.5 -98.499 40.5zM-0.00195312 0v289.001h150l-10 44
l-7 48l-2 62c0 42.667 8 89.5 24 140.5s48.333 98.833 97 143.5c52.667 49.333 108 82.666 166 99.999s108.333 26 151 26l53 -3c14.667 0 33.667 -4.33301 57 -13l42 -15l84 -52c56.667 -37.333 100.667 -98 132 -182c20 -53.333 30 -102.333 30 -147
c0 -18.667 -2 -39 -6 -61l-13 -65l-7 -25l-44 -83c-28.667 -53.333 -73 -98 -133 -134c-29.333 -18 -62 -32 -98 -42l-99 -22l-42 -5l-34 -2l-30 -2h-461z" />
    <glyph glyph-name="meemmedial" unicode="&#x645;" horiz-adv-x="1050" arabic-form="medial" 
d="M1050 0l-131.999 -0.00195312l-17 -43c-10 -28.667 -30.333 -59.667 -61 -93c-14 -16 -32 -32 -54 -48s-46 -31 -72 -45c-52 -28 -122 -42 -210 -42c-36 0 -68.333 3.33301 -97 10c-14.667 3.33301 -28 7.33301 -40 12s-24.333 11.334 -37 20.001
c-46 27.333 -84.333 58.333 -115 93c-23.333 28 -44 59 -62 93l-19 43h-134v288h134l18 43c11.333 28 31.666 60.333 60.999 97c12 13.333 29.333 30 52 50c9.33301 8 22 17.333 38 28s25.667 17 29 19c52 28.667 115.667 43 191 43c78.667 0 143.667 -14.5 195 -43.5
s91 -60.667 119 -95s48.333 -67.166 61 -98.499l17 -43h135v-288zM525.001 281.998c-37.333 0 -70.333 -13.333 -99 -40c-26.667 -28.667 -40 -60.667 -40 -96c0 -37.333 13.333 -69.5 40 -96.5s59.667 -40.5 99 -40.5c37.333 0 69.666 13 96.999 39s41 58.667 41 98
c0 35.333 -13.167 66.833 -39.5 94.5s-59.166 41.5 -98.499 41.5z" />
    <glyph glyph-name="noonisolated" unicode="&#x646;" horiz-adv-x="1156" arabic-form="isolated" 
d="M609 1426c0 -39.333 -15.168 -74.501 -45.501 -105.501s-66.166 -46.5 -107.499 -46.5c-42 0 -77.833 15.167 -107.5 45.5s-44.5 65.833 -44.5 106.5c0 42.667 14.667 78.834 44 108.501s65.333 44.5 108 44.5c42 0 78 -15 108 -45s45 -66 45 -108zM1056 75.999
l-17.001 -123.999c-22 -92 -63 -168.667 -123 -230c-82.667 -82.667 -194 -124 -334 -124c-141.333 0 -254.666 41 -339.999 123c-56.667 56.667 -98 133 -124 229l-18 124v421c4 32 10 57.667 18 77c25.333 52 70 78 134 78c61.333 0 104.333 -25.667 129 -77
c6.66699 -14 13 -40 19 -78v-421c4 -42 11 -74 21 -96c28 -64.667 78.667 -97 152 -97c72.667 0 125 32 157 96c8 17.333 15.667 49.666 23 96.999v692c4 32.667 10.333 56.667 19 72c26 48 71.333 72 136 72c60 0 103 -24 129 -72c6.66699 -14 13 -38 19 -72v-690z" />
    <glyph glyph-name="noonfinal" unicode="&#x646;" horiz-adv-x="1264" arabic-form="final" 
d="M611 1426c0 -39.333 -15.168 -74.501 -45.501 -105.501s-66.166 -46.5 -107.499 -46.5c-42 0 -77.667 14.667 -107 44s-44 65.333 -44 108s14.667 78.834 44 108.501s65 44.5 107 44.5s78 -15 108 -45s45 -66 45 -108zM1266 -0.000976562l-215.001 -0.00195312
c-10 -61.333 -27.667 -115.666 -53 -162.999c-32.667 -66.667 -79.667 -121.334 -141 -164.001c-74 -50 -165 -75 -273 -75c-142.667 0 -256 41 -340 123c-58 58 -99.333 134.667 -124 230l-18 124v420c4 32 10 57.667 18 77c25.333 52 70 78 134 78
c62 0 105.333 -25.667 130 -77c6.66699 -14 13 -40 19 -78v-420c4 -41.333 11 -73.666 21 -96.999c28 -64.667 78.333 -97 151 -97c54 0 97.5 17.833 130.5 53.5s49.5 80.834 49.5 135.501v649c0 12 0.666992 22.333 2 31s3 15.667 5 21c20 76 68.333 114 145 114
c60.667 0 104.334 -27.667 131.001 -83c6.66699 -16 13 -43.667 19 -83v-215v-215h209v-289z" />
    <glyph glyph-name="nooninitial" unicode="&#x646;" horiz-adv-x="659" arabic-form="initial" 
d="M510 1429c0 -39.333 -15.168 -74.501 -45.501 -105.501s-66.166 -46.5 -107.499 -46.5c-40 0 -75.667 15 -107 45c-29.333 30.667 -44 66.334 -44 107.001c0 42 14.833 77.833 44.5 107.5s65.167 44.5 106.5 44.5c42 0 78 -15 108 -45s45 -65.667 45 -107z
M558.999 201.999c0 -10.667 -0.666016 -20.334 -1.99902 -29.001s-3 -15.667 -5 -21c-10 -38 -27.167 -69.167 -51.5 -93.5s-55.5 -41.5 -93.5 -51.5l-50 -7h-357v289h205c12.667 0 22.167 0.666992 28.5 2s13.166 5.83301 20.499 13.5s12.333 17.834 15 30.501l2 19v339
c4 30.667 10 55 18 73c24.667 48.667 66.667 73 126 73c60 0 102 -24.333 126 -73c7.33301 -16 13.333 -40.333 18 -73v-491z" />
    <glyph glyph-name="noonmedial" unicode="&#x646;" horiz-adv-x="740" arabic-form="medial" 
d="M515 1429c0 -42 -14.833 -77.833 -44.5 -107.5s-65.5 -44.5 -107.5 -44.5s-77.833 15.167 -107.5 45.5s-44.5 65.833 -44.5 106.5c0 39.333 15.167 74.5 45.5 105.5s65.833 46.5 106.5 46.5c39.333 0 74.5 -15.167 105.5 -45.5s46.5 -65.833 46.5 -106.5zM740 0
l-178.001 -0.000976562v180c-4 -22 -9 -41 -15 -57c-10 -25.333 -24.333 -47.666 -43 -66.999c-24 -22 -54.667 -38.333 -92 -49l-49 -7h-363v289h209c12.667 0 21.667 0.666992 27 2c8 0.666992 15.333 5 22 13c7.33301 6 12.333 16.333 15 31l2 19v339l6 37
c2 12.667 6.33301 24.667 13 36c24.667 48.667 66 73 124 73c58.667 0 101.334 -24.333 128.001 -73c8 -16 14 -40.333 18 -73v-404h176v-289z" />
    <glyph glyph-name="hehisolated" unicode="&#x647;" horiz-adv-x="1050" arabic-form="isolated" 
d="M526 857c58.667 0 113.332 -11.6631 163.999 -34.9961c50 -20 95.333 -50.333 136 -91c16.667 -16.667 32.834 -36.5 48.501 -59.5s30.167 -48.833 43.5 -77.5c10 -26.667 18 -53.334 24 -80.001c2.66699 -13.333 4.66699 -26.5 6 -39.5s2 -28.5 2 -46.5
c0 -58.667 -10.667 -114.334 -32 -167.001c-12.667 -29.333 -26.167 -53.833 -40.5 -73.5s-31.5 -40.5 -51.5 -62.5c-36.667 -36.667 -82.167 -66.834 -136.5 -90.501s-108.833 -35.5 -163.5 -35.5c-24.667 0 -41.5 0.5 -50.5 1.5s-23.667 3.5 -44 7.5
s-44.166 12.667 -71.499 26c-51.333 20 -96 49.167 -134 87.5s-68.5 84 -91.5 137s-34.5 109.5 -34.5 169.5c0 58.667 10.833 113.667 32.5 165s51.667 97.166 90 137.499s84.166 70.833 137.499 91.5c50.667 23.333 106 35 166 35zM525.998 568.004
c-37.333 0 -70.667 -14 -100 -42c-13.333 -14 -23.333 -29.333 -30 -46s-10 -34 -10 -52c0 -38 14.167 -70.833 42.5 -98.5s60.833 -41.5 97.5 -41.5c38 0 70.833 14.167 98.5 42.5s41.5 60.833 41.5 97.5c0 37.333 -13.667 70 -41 98s-60.333 42 -99 42z" />
    <glyph glyph-name="hehfinal" unicode="&#x647;" horiz-adv-x="1056" arabic-form="final" 
d="M1056 0h-131.001l-27 1l-29 3l-27 4l-38 13c-15.333 4 -29 10.333 -41 19l-35 22l-21 23l-9 8l-7 6l-42 -18l-45 -14c-13.333 -3.33301 -28.166 -6 -44.499 -8s-33.833 -3 -52.5 -3c-54.667 0 -106.667 10 -156 30s-92 47.667 -128 83s-66.333 77.666 -91 126.999
c-10.667 24.667 -18.667 49.334 -24 74.001l-6 37l-2 43c0 54.667 10.667 105 32 151s49.666 86.667 84.999 122s78.666 64.333 129.999 87c26 10.667 51.667 18.667 77 24c13.333 2.66699 26.333 4.66699 39 6s27.334 2 44.001 2c46.667 0 90.667 -7.33301 132 -22v68l2 21
c2 14 7 30 15 48l22 31l20 16c22.667 16.667 49.334 25 80.001 25h26c11.333 0 21.666 -1.66699 30.999 -5c12.667 -2 24 -6.66699 34 -14l17 -11l13 -12l18 -25c2.66699 -4.66699 6.33398 -14 11.001 -28l6 -24l2 -16l1 -6v-565l1 -5l1 -5l9 -9l15 -10l16 -4l13 -1h6h58
v-289zM641.999 446c0 20.667 -3.66699 37.001 -11 49.001c-6 13.333 -14.833 26.166 -26.5 38.499s-26.5 22.5 -44.5 30.5c-7.33301 2.66699 -15.5 5 -24.5 7s-17.833 3 -26.5 3c-14.667 0 -30.667 -3.16699 -48 -9.5s-32 -15.166 -44 -26.499
c-9.33301 -9.33301 -19 -23.333 -29 -42c-6.66699 -20 -10 -36.667 -10 -50c0 -16.667 3.16699 -32.834 9.5 -48.501s15.5 -29.5 27.5 -41.5c11.333 -10 26 -18.667 44 -26c15.333 -8 32 -12 50 -12s35 4 51 12c16.667 5.33301 30.667 13.833 42 25.5
s20.833 25.167 28.5 40.5s11.5 32 11.5 50z" />
    <glyph glyph-name="hehinitial" unicode="&#x647;" horiz-adv-x="1581" arabic-form="initial" 
d="M1465 133c-20 -48 -46.667 -83.667 -80 -107c-17.333 -12 -47 -20.667 -89 -26h-1296v289h135l-11 40c-8 36 -12 70.667 -12 104c0 29.333 2.33301 57.333 7 84s12 52 22 76c25.333 64 67 119.333 125 166c39.333 31.333 80.333 54.333 123 69s87.334 22 134.001 22
c62 0 125.667 -13.333 191 -40c23.333 -8.66699 49.333 -22 78 -40l-266 349l-12 24c-8.66699 24 -13 44 -13 60c0 18.667 3.83301 36.5 11.5 53.5s21.834 33.833 42.501 50.5c14 12 28.167 20 42.5 24s31.166 6 50.499 6c22 -2 41.167 -8.16699 57.5 -18.5
s33.166 -25.5 50.499 -45.5l660 -889l17 -25l15 -24c22 -41.333 33 -81.333 33 -120v-28c-2 -7.33301 -3.33301 -12.333 -4 -15zM1144 289l-244 317.002l16 -57c10.667 -51.333 16 -91 16 -119c0 -16.667 -1.33301 -33.334 -4 -50.001s-7 -33.334 -13 -50.001
c-2 -8 -8 -21.667 -18 -41h247zM654 446.002c-5.33301 28.667 -11.999 49.333 -19.999 62c-24 42 -62 63 -114 63c-50.667 0 -89 -22 -115 -66c-8 -14 -15 -36 -21 -66c2 -14.667 4.33301 -27.5 7 -38.5s6 -20.167 10 -27.5c22.667 -44.667 60.667 -67 114 -67
c59.333 0 100.333 23.333 123 70c5.33301 12.667 10.666 36 15.999 70z" />
    <glyph glyph-name="hehmedial" unicode="&#x647;" horiz-adv-x="1605" arabic-form="medial" 
d="M1605 0h-104.999v30v151c-8 -52.667 -27.333 -95.334 -58 -128.001c-35.333 -35.333 -84 -53 -146 -53h-1296v289h135l-11 40c-8 36 -12 70.333 -12 103c0 58.667 9.66699 112.334 29 161.001c25.333 64 67 119.333 125 166c39.333 31.333 80.333 54.333 123 69
s87.334 22 134.001 22c62 0 125.667 -13.333 191 -40c23.333 -8.66699 49.333 -22 78 -40l-265 349l-13 24l-8 25l-4 18.5c-0.666992 3 -1 8.5 -1 16.5c0 18 4 35.667 12 53s22.333 34.333 43 51c11.333 10 22.666 17 33.999 21c15.333 6 34.666 9 57.999 9
c44 -4 80 -25.333 108 -64l730 -984h119v-262v-27zM1144 289l-244 317.002l16 -57c10.667 -51.333 16 -91 16 -119c0 -16.667 -1.33301 -33.334 -4 -50.001s-7 -33.334 -13 -50.001c-2 -8 -8 -21.667 -18 -41h247zM654.001 446.002
c-5.33301 28.667 -11.999 49.333 -19.999 62c-24 42 -62 63 -114 63c-50.667 0 -89 -22 -115 -66c-8 -14 -15 -36 -21 -66c2 -14.667 4.33301 -27.5 7 -38.5s6 -20.167 10 -27.5c22.667 -44.667 60.667 -67 114 -67c59.333 0 100.333 23.333 123 70
c5.33301 12.667 10.666 36 15.999 70z" />
    <glyph glyph-name="wawisolated" unicode="&#x648;" horiz-adv-x="1045" arabic-form="isolated" 
d="M945 417c0 -36.667 -5.33105 -71.3311 -15.998 -103.998s-23.334 -61.334 -38.001 -86.001l-216 -386l-48 -82l-41 -73l-14 -20l-16 -19l-11 -8c-16.667 -12 -39.334 -22.667 -68.001 -32l-21 -3c-22 0 -46.333 8.33301 -73 25c-37.333 22 -56 48 -56 78v35l1 21l7 18
l10 23c4 9.33301 8.33301 16.666 13 21.999l33 59l66 112l-5 1c-92 17.333 -164.667 51 -218 101c-28.667 26.667 -51.667 54.5 -69 83.5s-32.5 64.333 -45.5 106s-19.5 83.5 -19.5 125.5l3 53c0.666992 6.66699 2 15 4 25s4.33301 19.667 7 29c22 88 71 162 147 222
s163.333 90 262 90c56.667 0 110 -10 160 -30s95.667 -50.667 137 -92c83.333 -81.333 125 -179.333 125 -294zM652.002 415.003c0 36 -13.166 67.667 -39.499 95s-58.833 41 -97.5 41c-38 0 -70.5 -13.333 -97.5 -40s-40.5 -58.667 -40.5 -96
c0 -36.667 13.167 -68.5 39.5 -95.5s59.166 -40.5 98.499 -40.5c36.667 0 68.667 13 96 39s41 58.333 41 97z" />
    <glyph glyph-name="wawfinal" unicode="&#x648;" horiz-adv-x="1057" arabic-form="final" 
d="M1057 290l-1.00098 -290h-293l-88 -158l-76 -136l-6 -9l-5 -9c-12.667 -19.333 -26.667 -35.666 -42 -48.999l-30 -18l-38 -13l-22 -3c-19.333 0 -43.666 8 -72.999 24c-36.667 21.333 -55 47.333 -55 78l1 45l6 29l10 23l13 22l33 59l66 113h-4
c-92.667 16 -165.667 49.167 -219 99.5s-91.333 113.166 -114 188.499c-6.66699 23.333 -11.667 45 -15 65s-5 41 -5 63l3 53c0.666992 6.66699 2 15 4 25s4.33301 19.667 7 29c23.333 89.333 73 163.833 149 223.5s162.667 89.5 260 89.5c113.333 0 212 -40.833 296 -122.5
s126 -179.5 126 -293.5c0 -47.333 -8.33301 -90 -25 -128h137zM652.999 414c0 37.333 -13.168 69.5 -39.501 96.5s-59.166 40.5 -98.499 40.5c-38 0 -70.667 -13.167 -98 -39.5s-41 -58.833 -41 -97.5c0 -36.667 13.833 -68.5 41.5 -95.5s60.167 -40.5 97.5 -40.5
c36 0 68 13 96 39s42 58.333 42 97z" />
    <glyph glyph-name="alefmaksuraisolated" unicode="&#x649;" horiz-adv-x="1948" arabic-form="isolated" 
d="M1818 876l15 -22.001c10 -18 15 -37.333 15 -58c0 -17.333 -4.33301 -35 -13 -53c-4 -9.33301 -9.66699 -18 -17 -26c-5.33301 -7.33301 -14.333 -15.666 -27 -24.999c-16 -14 -32 -24 -48 -30l-22 -6l-24 -2c-22 0 -44 6 -66 18l-25 18l-152 151l-29 20
c-24.667 13.333 -48 20 -70 20c-16.667 0 -30.667 -2.66699 -42 -8c-12 -4 -25.667 -13.667 -41 -29c-14.667 -13.333 -24.667 -27.166 -30 -41.499s-8 -28.166 -8 -41.499c0 -20.667 5.66699 -41 17 -61l18 -24l465 -459l18 -31c12.667 -28.667 19 -52.334 19 -71.001
c0 -12.667 -0.666992 -22 -2 -28s-4 -12 -8 -18c-14.667 -29.333 -43.667 -50 -87 -62l-29 -5l-30 -1h-1097c-32 0 -68 5 -108 15c-82 21.333 -149 59.333 -201 114c-72.667 76.667 -109 180.667 -109 312c0 114 36 205 108 273c48.667 45.333 115.667 78.666 201 99.999
c42 10 78.333 15 109 15h35c28.667 -4 51 -10 67 -18c45.333 -24 68 -66 68 -126c0 -55.333 -22.333 -96 -67 -122c-12.667 -8 -35.334 -14.333 -68.001 -19l-18 1c-34 0 -62.333 -6.33301 -85 -19c-36.667 -20.667 -55 -55.667 -55 -105c0 -52 18.333 -89.333 55 -112
c23.333 -14 52 -21 86 -21h11l6 1h696l-200 197c-24 29.333 -42 54.333 -54 75c-16.667 30 -30 62 -40 96s-15 67 -15 99c0 51.333 9.66699 98.333 29 141c23.333 56 60 108 110 156c43.333 42 91 74.667 143 98c43.333 18 88.333 27 135 27c51.333 0 103 -11.333 155 -34
c34.667 -16 70.334 -37.333 107.001 -64l41 -35z" />
    <glyph glyph-name="alefmaksurafinal" unicode="&#x649;" horiz-adv-x="2510" arabic-form="final" 
d="M2510 0l-127.002 -0.00195312h-18c-15.333 0 -28.333 1.33301 -39 4l-38 16c-19.333 8 -38.666 19.333 -58 34l-13 10l-11 12l-752 766l-28 19c-24.667 13.333 -47.667 20 -69 20c-10.667 0 -18.5 -0.333008 -23.5 -1s-11.5 -3 -19.5 -7
c-11.333 -4 -24.666 -13 -39.999 -27s-25.666 -28.167 -30.999 -42.5s-8 -28.166 -8 -41.499c0 -18.667 6 -39 18 -61l18 -24l464 -461l18 -30c12 -24 18 -47 18 -69c0 -17.333 -3.66699 -33 -11 -47c-13.333 -29.333 -42.333 -50 -87 -62l-29 -5l-30 -1h-1093
c-32.667 0 -69 5 -109 15c-80 20 -147.667 58 -203 114c-72.667 76.667 -109 180.334 -109 311.001c0 114 36 205 108 273c48.667 45.333 115.667 78.666 201 99.999c42 10 78.333 15 109 15h36c29.333 -4 51.333 -10 66 -18c44 -24 66 -66 66 -126
c0 -56 -22.333 -96.333 -67 -121c-12 -5.33301 -34.667 -11.666 -68 -18.999l-17 1c-34.667 0 -63.667 -6.33301 -87 -19c-37.333 -20 -56 -55.333 -56 -106c0 -40 12 -72.667 36 -98c24.667 -23.333 59.667 -35 105 -35h9l7 1h695l-201 196
c-24.667 30.667 -42.667 56 -54 76c-16.667 29.333 -30 61 -40 95s-15 67 -15 99c0 50.667 10 100 30 148s56.667 97.667 110 149c42 42 89.333 74.667 142 98c43.333 18 88.333 27 135 27c70 0 141.667 -22 215 -66c22 -12.667 50.667 -35 86 -67l692 -707l6 -5l34 -24
l31 -14c12 -4 22.667 -6 32 -6h64v-289z" />
    <glyph glyph-name="yehisolated" unicode="&#x64a;" horiz-adv-x="1948" arabic-form="isolated" 
d="M1818 876l15 -22.001c10 -18 15 -37.333 15 -58c0 -17.333 -4.33301 -35 -13 -53c-4 -9.33301 -9.66699 -18 -17 -26c-5.33301 -7.33301 -14.333 -15.666 -27 -24.999c-16 -14 -32 -24 -48 -30l-22 -6l-24 -2c-22 0 -44 6 -66 18l-25 18l-152 151l-29 20
c-24.667 13.333 -48 20 -70 20c-16.667 0 -30.667 -2.66699 -42 -8c-12 -4 -25.667 -13.667 -41 -29c-14.667 -13.333 -24.667 -27.166 -30 -41.499s-8 -28.166 -8 -41.499c0 -20.667 5.66699 -41 17 -61l18 -24l465 -459l18 -31c12.667 -28.667 19 -52.334 19 -71.001
c0 -12.667 -0.666992 -22 -2 -28s-4 -12 -8 -18c-14.667 -29.333 -43.667 -50 -87 -62l-29 -5l-30 -1h-1097c-32 0 -68 5 -108 15c-82 21.333 -149 59.333 -201 114c-72.667 76.667 -109 180.667 -109 312c0 114 36 205 108 273c48.667 45.333 115.667 78.666 201 99.999
c42 10 78.333 15 109 15h35c28.667 -4 51 -10 67 -18c45.333 -24 68 -66 68 -126c0 -55.333 -22.333 -96 -67 -122c-12.667 -8 -35.334 -14.333 -68.001 -19l-18 1c-34 0 -62.333 -6.33301 -85 -19c-36.667 -20.667 -55 -55.667 -55 -105c0 -52 18.333 -89.333 55 -112
c23.333 -14 52 -21 86 -21h11l6 1h696l-200 197c-24 29.333 -42 54.333 -54 75c-16.667 30 -30 62 -40 96s-15 67 -15 99c0 51.333 9.66699 98.333 29 141c23.333 56 60 108 110 156c43.333 42 91 74.667 143 98c43.333 18 88.333 27 135 27c51.333 0 103 -11.333 155 -34
c34.667 -16 70.334 -37.333 107.001 -64l41 -35zM1373 -306.001c0 -42.667 -14.667 -78.834 -44 -108.501s-65 -44.5 -107 -44.5c-39.333 0 -74.666 14.833 -105.999 44.5s-47 65.834 -47 108.501c0 42 15.167 77.833 45.5 107.5s66.166 44.5 107.499 44.5
c42 0 77.667 -14.667 107 -44s44 -65.333 44 -108zM969 -306.001c0 -42.667 -14.167 -78.834 -42.5 -108.501s-64.166 -44.5 -107.499 -44.5c-40.667 0 -76.5 15.333 -107.5 46s-46.5 66.334 -46.5 107.001c0 39.333 15 74.5 45 105.5s66.333 46.5 109 46.5
c41.333 0 76.666 -15.167 105.999 -45.5s44 -65.833 44 -106.5z" />
    <glyph glyph-name="yehfinal" unicode="&#x64a;" horiz-adv-x="2510" arabic-form="final" 
d="M2510 0l-127.002 -0.00195312h-18c-15.333 0 -28.333 1.33301 -39 4l-38 16c-19.333 8 -38.666 19.333 -58 34l-13 10l-11 12l-752 766l-28 19c-24.667 13.333 -47.667 20 -69 20c-10.667 0 -18.5 -0.333008 -23.5 -1s-11.5 -3 -19.5 -7
c-11.333 -4 -24.666 -13 -39.999 -27s-25.666 -28.167 -30.999 -42.5s-8 -28.166 -8 -41.499c0 -18.667 6 -39 18 -61l18 -24l464 -461l18 -30c12 -24 18 -47 18 -69c0 -17.333 -3.66699 -33 -11 -47c-13.333 -29.333 -42.333 -50 -87 -62l-29 -5l-30 -1h-1093
c-32.667 0 -69 5 -109 15c-80 20 -147.667 58 -203 114c-72.667 76.667 -109 180.334 -109 311.001c0 114 36 205 108 273c48.667 45.333 115.667 78.666 201 99.999c42 10 78.333 15 109 15h36c29.333 -4 51.333 -10 66 -18c44 -24 66 -66 66 -126
c0 -56 -22.333 -96.333 -67 -121c-12 -5.33301 -34.667 -11.666 -68 -18.999l-17 1c-34.667 0 -63.667 -6.33301 -87 -19c-37.333 -20 -56 -55.333 -56 -106c0 -40 12 -72.667 36 -98c24.667 -23.333 59.667 -35 105 -35h9l7 1h695l-201 196
c-24.667 30.667 -42.667 56 -54 76c-16.667 29.333 -30 61 -40 95s-15 67 -15 99c0 50.667 10 100 30 148s56.667 97.667 110 149c42 42 89.333 74.667 142 98c43.333 18 88.333 27 135 27c70 0 141.667 -22 215 -66c22 -12.667 50.667 -35 86 -67l692 -707l6 -5l34 -24
l31 -14c12 -4 22.667 -6 32 -6h64v-289zM1342 -306.002c0 -42.667 -14.667 -78.834 -44 -108.501s-65 -44.5 -107 -44.5c-39.333 0 -74.666 14.833 -105.999 44.5s-47 65.834 -47 108.501c0 42 15.167 77.833 45.5 107.5s66.166 44.5 107.499 44.5
c42 0 77.667 -14.667 107 -44s44 -65.333 44 -108zM937.998 -306.002c0 -42.667 -14.167 -78.834 -42.5 -108.501s-64.166 -44.5 -107.499 -44.5c-40.667 0 -76.5 15.333 -107.5 46s-46.5 66.334 -46.5 107.001c0 39.333 15 74.5 45 105.5s66.333 46.5 109 46.5
c41.333 0 76.666 -15.167 105.999 -45.5s44 -65.833 44 -106.5z" />
    <glyph glyph-name="yehinitial" unicode="&#x64a;" horiz-adv-x="693" arabic-form="initial" 
d="M559 202c0 -10.667 -0.666016 -20.334 -1.99902 -29.001s-3 -15.667 -5 -21c-10 -38 -27.167 -69.167 -51.5 -93.5s-55.5 -41.5 -93.5 -51.5l-50 -7h-357v289h205c12.667 0 22.167 0.666992 28.5 2s13.166 5.83301 20.499 13.5s12.333 17.834 15 30.501l2 19v339
c4 30.667 10 55 18 73c24.667 48.667 66.667 73 126 73c60 0 102 -24.333 126 -73c7.33301 -16 13.333 -40.333 18 -73v-491zM593.001 -294c0 -34 -12.1689 -63.667 -36.502 -89s-55.166 -38 -92.499 -38c-34 0 -63.167 12.167 -87.5 36.5s-36.5 54.5 -36.5 90.5
c0 34.667 12.167 64.667 36.5 90s53.5 38 87.5 38c34.667 0 64.834 -12 90.501 -36s38.5 -54.667 38.5 -92zM278.999 -294c0 -34 -12.167 -63.667 -36.5 -89s-54.5 -38 -90.5 -38c-35.333 0 -65.5 12.5 -90.5 37.5s-37.5 54.833 -37.5 89.5c0 36 12.333 66.333 37 91
s55 37 91 37c34 0 63.667 -12.5 89 -37.5s38 -55.167 38 -90.5z" />
    <glyph glyph-name="yehmedial" unicode="&#x64a;" horiz-adv-x="740" arabic-form="medial" 
d="M740 0l-178.001 -0.000976562v180c-4 -22 -9 -41 -15 -57c-10 -25.333 -24.333 -47.666 -43 -66.999c-24 -22 -54.667 -38.333 -92 -49l-49 -7h-363v289h209c12.667 0 21.667 0.666992 27 2c8 0.666992 15.333 5 22 13c7.33301 6 12.333 16.333 15 31l2 19v339l6 37
c2 12.667 6.33301 24.667 13 36c24.667 48.667 66 73 124 73c58.667 0 101.334 -24.333 128.001 -73c8 -16 14 -40.333 18 -73v-404h176v-289zM685.999 -306.001c0 -42.667 -14.167 -78.834 -42.5 -108.501s-64.166 -44.5 -107.499 -44.5c-40.667 0 -76.5 15.333 -107.5 46
s-46.5 66.334 -46.5 107.001c0 42 15.167 77.833 45.5 107.5s66.5 44.5 108.5 44.5c41.333 0 76.666 -15.167 105.999 -45.5s44 -65.833 44 -106.5zM339.999 -306.001c0 -42.667 -14.167 -78.834 -42.5 -108.501s-64.166 -44.5 -107.499 -44.5
c-40.667 0 -76.5 15.333 -107.5 46s-46.5 66.334 -46.5 107.001c0 39.333 15 74.5 45 105.5s66.333 46.5 109 46.5c41.333 0 76.666 -15.167 105.999 -45.5s44 -65.833 44 -106.5z" />
    <glyph glyph-name=".notdef" horiz-adv-x="1229" 
d="M102 -362v1806h1024v-1806h-1024zM217 -248h795v1577h-795v-1577z" />
    <glyph glyph-name="space" unicode=" " horiz-adv-x="713" 
 />
    <glyph glyph-name="exclam" unicode="!" horiz-adv-x="934" 
d="M287 1493h360v-573l-51 -418h-258l-51 418v573zM287 356h360v-356h-360v356z" />
    <glyph glyph-name="quotedbl" unicode="&#x22;" horiz-adv-x="1067" 
d="M872 1493v-555h-237v555h237zM432 1493v-555h-237v555h237z" />
    <glyph glyph-name="numbersign" unicode="#" horiz-adv-x="1716" 
d="M911 1470l-96 -385h264l97 385h221l-97 -385h277v-213h-330l-69 -274h284v-215h-336l-96 -383h-221l96 383h-264l-96 -383h-223l96 383h-279v215h328l70 274h-283v213h338l96 385h223zM1024 872h-264l-70 -274h264z" />
    <glyph glyph-name="dollar" unicode="$" horiz-adv-x="1425" 
d="M795 -301l-161.999 0.00195312l-1 301c-83.333 3.33301 -164 12.666 -242 27.999s-154 36.666 -228 63.999v262c76.667 -39.333 154.167 -69.5 232.5 -90.5s157.833 -32.833 238.5 -35.5v311l-33 6c-159.333 28 -272.5 72 -339.5 132s-100.5 146.333 -100.5 259
c0 119.333 40.833 212.5 122.5 279.5s198.167 103.5 349.5 109.5l1 231h162v-227c66.667 -5.33301 133.334 -13.666 200.001 -24.999s133.667 -26 201 -44v-254c-66.667 28 -133.334 49.833 -200.001 65.5s-133.667 25.167 -201 28.5v-287l32 -6
c169.333 -26.667 288.166 -71.167 356.499 -133.5s102.5 -154.5 102.5 -276.5c0 -122.667 -40.667 -216.834 -122 -282.501s-204.333 -103.167 -369 -112.5v-303zM633.001 836.002l-0.000976562 260.999c-47.333 -2.66699 -85.166 -15.5 -113.499 -38.5
s-42.5 -52.167 -42.5 -87.5c0 -39.333 13 -70.166 39 -92.499s65 -36.5 117 -42.5zM795 510.001l0.000976562 -277.999c58 0.666992 101.5 12 130.5 34s43.5 55 43.5 99c0 45.333 -13.333 79.166 -40 101.499s-71.334 36.833 -134.001 43.5z" />
    <glyph glyph-name="percent" unicode="%" horiz-adv-x="2052" 
d="M1587 616c-47.333 0 -84 -20.5 -110 -61.5s-39 -99.5 -39 -175.5c0 -76.667 12.833 -135.5 38.5 -176.5s62.5 -61.5 110.5 -61.5s84.667 20.5 110 61.5s38 99.833 38 176.5c0 76 -12.833 134.5 -38.5 175.5s-62.167 61.5 -109.5 61.5zM1587 784
c124 0 221.667 -35.999 293 -107.999s107 -171 107 -297s-35.667 -225.5 -107 -298.5s-169 -109.5 -293 -109.5s-221.833 36.5 -293.5 109.5s-107.5 172.5 -107.5 298.5c0 125.333 35.833 224.166 107.5 296.499s169.5 108.5 293.5 108.5zM670 -28.999h-221l933 1549h222z
M465 1520c124 0 221.5 -36.167 292.5 -108.5s106.5 -171.5 106.5 -297.5s-35.5 -225.333 -106.5 -298s-168.5 -109 -292.5 -109s-221.5 36.333 -292.5 109s-106.5 172 -106.5 298s35.5 225.167 106.5 297.5s168.5 108.5 292.5 108.5zM465 1352c-48 0 -85 -20.667 -111 -62
s-39 -100 -39 -176c0 -76.667 13 -135.834 39 -177.501s63 -62.5 111 -62.5s84.833 20.833 110.5 62.5s38.5 100.834 38.5 177.501c0 76 -13 134.667 -39 176s-62.667 62 -110 62z" />
    <glyph glyph-name="ampersand" unicode="&#x26;" horiz-adv-x="1786" 
d="M799 991l408.998 -449.998c35.333 46.667 62.166 99 80.499 157s29.166 123.667 32.499 197h311c-10 -121.333 -33.5 -229.333 -70.5 -324s-88.5 -177.667 -154.5 -249l293 -322h-424l-98 109c-70 -46.667 -143.667 -81.334 -221 -104.001s-159.333 -34 -246 -34
c-175.333 0 -317.166 46.167 -425.499 138.5s-162.5 211.5 -162.5 357.5c0 97.333 23.833 183.5 71.5 258.5s125.5 147.833 233.5 218.5c-28 35.333 -48.667 70.666 -62 105.999s-20 72.333 -20 111c0 108.667 42.333 195.667 127 261s197.334 98 338.001 98
c60.667 0 123.834 -4.83301 189.501 -14.5s134.167 -24.167 205.5 -43.5v-278c-62.667 32 -122 55.667 -178 71s-110.667 23 -164 23c-51.333 0 -91.166 -9.83301 -119.499 -29.5s-42.5 -47.5 -42.5 -83.5c0 -22.667 8.16699 -48.5 24.5 -77.5s40.5 -61.167 72.5 -96.5z
M599.998 743.002c-43.333 -31.333 -76.001 -66.833 -98.001 -106.5s-33 -83.167 -33 -130.5c0 -76.667 28.333 -142 85 -196s124.667 -81 204 -81c44.667 0 86.334 6.83301 125.001 20.5s74.667 34.167 108 61.5z" />
    <glyph glyph-name="quotesingle" unicode="'" horiz-adv-x="627" 
d="M432 1493v-555h-237v555h237z" />
    <glyph glyph-name="parenleft" unicode="(" horiz-adv-x="936" 
d="M772 -270l-297 -0.000976562c-102 164.667 -177.333 321.167 -226 469.5s-73 295.5 -73 441.5s24.5 293.833 73.5 443.5s124.167 306.167 225.5 469.5h297c-85.333 -158 -149.333 -312.5 -192 -463.5s-64 -300.167 -64 -447.5s21.167 -296.666 63.5 -447.999
s106.5 -306.333 192.5 -465z" />
    <glyph glyph-name="parenright" unicode=")" horiz-adv-x="936" 
d="M164 -270c85.333 158.667 149.333 313.668 192 465.001s64 300.666 64 447.999s-21.333 296.5 -64 447.5s-106.667 305.5 -192 463.5h297c101.333 -163.333 176.5 -319.833 225.5 -469.5s73.5 -297.5 73.5 -443.5s-24.333 -293.167 -73 -441.5s-124 -304.833 -226 -469.5
h-297z" />
    <glyph glyph-name="asterisk" unicode="*" horiz-adv-x="1071" 
d="M1030 1217l-330 -173l330 -174l-76 -141l-333 184v-344h-170v344l-334 -184l-76 141l334 174l-334 173l76 141l334 -182v344h170v-344l333 182z" />
    <glyph glyph-name="plus" unicode="+" horiz-adv-x="1716" 
d="M977 1284v-524h522v-236h-522v-524h-238v524h-522v236h522v524h238z" />
    <glyph glyph-name="comma" unicode="," horiz-adv-x="778" 
d="M209 387h360v-305l-247 -373h-213l100 373v305z" />
    <glyph glyph-name="hyphen" unicode="-" horiz-adv-x="850" 
d="M111 735h628v-291h-628v291z" />
    <glyph glyph-name="period" unicode="." horiz-adv-x="778" 
d="M209 387h360v-387h-360v387z" />
    <glyph glyph-name="slash" unicode="/" horiz-adv-x="748" 
d="M526 1493h222l-527 -1683h-221z" />
    <glyph glyph-name="zero" unicode="0" horiz-adv-x="1425" 
d="M942 748c0 186.667 -17.5 318.167 -52.5 394.5s-93.833 114.5 -176.5 114.5s-141.667 -38.167 -177 -114.5s-53 -207.833 -53 -394.5c0 -188.667 17.667 -321.667 53 -399s94.333 -116 177 -116c82 0 140.667 38.667 176 116s53 210.333 53 399zM1327 745
c0 -247.333 -53.333 -438.166 -160 -572.499s-258 -201.5 -454 -201.5c-196.667 0 -348.334 67.167 -455.001 201.5s-160 325.166 -160 572.499c0 248 53.333 439.167 160 573.5s258.334 201.5 455.001 201.5c196 0 347.333 -67.167 454 -201.5s160 -325.5 160 -573.5z" />
    <glyph glyph-name="one" unicode="1" horiz-adv-x="1425" 
d="M240 266h340v965l-349 -72v262l347 72h366v-1227h340v-266h-1044v266z" />
    <glyph glyph-name="two" unicode="2" horiz-adv-x="1425" 
d="M590 283l656.998 0.000976562v-283h-1085v283l545 481c48.667 44 84.667 87 108 129s35 85.667 35 131c0 70 -23.5 126.333 -70.5 169s-109.5 64 -187.5 64c-60 0 -125.667 -12.833 -197 -38.5s-147.666 -63.834 -228.999 -114.501v328
c86.667 28.667 172.334 50.5 257.001 65.5s167.667 22.5 249 22.5c178.667 0 317.5 -39.333 416.5 -118s148.5 -188.334 148.5 -329.001c0 -81.333 -21 -157.166 -63 -227.499s-130.333 -164.5 -265 -282.5z" />
    <glyph glyph-name="three" unicode="3" horiz-adv-x="1425" 
d="M954 805c100.667 -26 177.167 -71.166 229.5 -135.499s78.5 -146.166 78.5 -245.499c0 -148 -56.667 -260.5 -170 -337.5s-278.666 -115.5 -495.999 -115.5c-76.667 0 -153.5 6.16699 -230.5 18.5s-153.167 30.833 -228.5 55.5v297c72 -36 143.5 -63.167 214.5 -81.5
s140.833 -27.5 209.5 -27.5c102 0 180.167 17.667 234.5 53s81.5 86 81.5 152c0 68 -27.833 119.5 -83.5 154.5s-137.834 52.5 -246.501 52.5h-154v248h162c96.667 0 168.667 15.167 216 45.5s71 76.5 71 138.5c0 57.333 -23 101.666 -69 132.999s-111 47 -195 47
c-62 0 -124.667 -7 -188 -21s-126.333 -34.667 -189 -62v282c76 21.333 151.333 37.333 226 48s148 16 220 16c194 0 339.167 -31.833 435.5 -95.5s144.5 -159.5 144.5 -287.5c0 -87.333 -23 -158.833 -69 -214.5s-114 -94.834 -204 -117.501z" />
    <glyph glyph-name="four" unicode="4" horiz-adv-x="1425" 
d="M754 1176l-422 -625h422v625zM690 1493h428v-942h213v-279h-213v-272h-364v272h-662v330z" />
    <glyph glyph-name="five" unicode="5" horiz-adv-x="1425" 
d="M217 1493h957v-283h-650v-231c29.333 8 58.833 14.167 88.5 18.5s60.5 6.5 92.5 6.5c182 0 323.667 -45.5 425 -136.5s152 -217.833 152 -380.5c0 -161.333 -55.167 -287.666 -165.5 -378.999s-263.5 -137 -459.5 -137c-84.667 0 -168.5 8.16699 -251.5 24.5
s-165.5 41.166 -247.5 74.499v303c81.333 -46.667 158.5 -81.667 231.5 -105s141.833 -35 206.5 -35c93.333 0 166.833 22.833 220.5 68.5s80.5 107.5 80.5 185.5c0 78.667 -26.833 140.667 -80.5 186s-127.167 68 -220.5 68c-55.333 0 -114.333 -7.16699 -177 -21.5
s-130 -36.5 -202 -66.5v840z" />
    <glyph glyph-name="six" unicode="6" horiz-adv-x="1425" 
d="M741 737c-67.333 0 -117.833 -21.833 -151.5 -65.5s-50.5 -109.167 -50.5 -196.5s16.833 -152.833 50.5 -196.5s84.167 -65.5 151.5 -65.5c68 0 118.833 21.833 152.5 65.5s50.5 109.167 50.5 196.5s-16.833 152.833 -50.5 196.5s-84.5 65.5 -152.5 65.5zM1217 1454
l-0.00195312 -276c-63.333 30 -123 52.167 -179 66.5s-110.667 21.5 -164 21.5c-114.667 0 -204 -31.833 -268 -95.5s-101.333 -158.167 -112 -283.5c44 32.667 91.667 57.167 143 73.5s107.333 24.5 168 24.5c152.667 0 275.834 -44.667 369.501 -134
s140.5 -206.333 140.5 -351c0 -160 -52.333 -288.167 -157 -384.5s-245 -144.5 -421 -144.5c-194 0 -344.167 65.5 -450.5 196.5s-159.5 316.833 -159.5 557.5c0 246.667 62.167 440.5 186.5 581.5s294.833 211.5 511.5 211.5c68.667 0 135.334 -5.33301 200.001 -16
s128.667 -26.667 192 -48z" />
    <glyph glyph-name="seven" unicode="7" horiz-adv-x="1425" 
d="M137 1493h1125v-217l-582 -1276h-375l551 1210h-719v283z" />
    <glyph glyph-name="eight" unicode="8" horiz-adv-x="1425" 
d="M713 668c-72 0 -127.333 -19.668 -166 -59.001s-58 -95.666 -58 -168.999s19.333 -129.5 58 -168.5s94 -58.5 166 -58.5c71.333 0 126 19.5 164 58.5s57 95.167 57 168.5c0 74 -19 130.5 -57 169.5s-92.667 58.5 -164 58.5zM432 794.999
c-90.667 27.333 -159.001 69.334 -205.001 126.001s-69 127.334 -69 212.001c0 126 47 222 141 288s232 99 414 99c180.667 0 318 -32.833 412 -98.5s141 -161.834 141 -288.501c0 -84.667 -23.167 -155.334 -69.5 -212.001s-114.833 -98.667 -205.5 -126
c101.333 -28 177.833 -73.5 229.5 -136.5s77.5 -142.5 77.5 -238.5c0 -148 -49.167 -259.833 -147.5 -335.5s-244.166 -113.5 -437.499 -113.5c-194 0 -340.5 37.833 -439.5 113.5s-148.5 187.5 -148.5 335.5c0 96 25.833 175.5 77.5 238.5s128.167 108.5 229.5 136.5z
M521.999 1094c0 -59.333 16.5 -105 49.5 -137s80.167 -48 141.5 -48c60 0 106.333 16 139 48s49 77.667 49 137s-16.333 104.833 -49 136.5s-79 47.5 -139 47.5c-61.333 0 -108.5 -16 -141.5 -48s-49.5 -77.333 -49.5 -136z" />
    <glyph glyph-name="nine" unicode="9" horiz-adv-x="1425" 
d="M205 33v275.999c61.333 -28.667 120 -50.167 176 -64.5s111.333 -21.5 166 -21.5c114.667 0 204 31.833 268 95.5s101.667 158.167 113 283.5c-45.333 -33.333 -93.666 -58.333 -144.999 -75s-107 -25 -167 -25c-152.667 0 -275.834 44.5 -369.501 133.5
s-140.5 206.167 -140.5 351.5c0 160.667 52.167 289.334 156.5 386.001s244.166 145 419.499 145c194.667 0 345.334 -65.667 452.001 -197s160 -317 160 -557c0 -246.667 -62.333 -440.5 -187 -581.5s-295.667 -211.5 -513 -211.5c-70 0 -137 5.16699 -201 15.5
s-126.667 25.833 -188 46.5zM680 751.999c67.333 0 118 21.833 152 65.5s51 109.167 51 196.5c0 86.667 -17 152 -51 196s-84.667 66 -152 66s-118 -22 -152 -66s-51 -109.333 -51 -196c0 -87.333 17 -152.833 51 -196.5s84.667 -65.5 152 -65.5z" />
    <glyph glyph-name="colon" unicode=":" horiz-adv-x="819" 
d="M229 1120h361v-387h-361v387zM229 387h361v-387h-361v387z" />
    <glyph glyph-name="semicolon" unicode=";" horiz-adv-x="819" 
d="M229 387h361v-305l-248 -373h-213l100 373v305zM229 1120h361v-387h-361v387z" />
    <glyph glyph-name="less" unicode="&#x3c;" horiz-adv-x="1716" 
d="M1499 973l-964 -332l964 -330v-250l-1282 463v236l1282 463v-250z" />
    <glyph glyph-name="equal" unicode="=" horiz-adv-x="1716" 
d="M217 987h1282v-235h-1282v235zM217 532h1282v-237h-1282v237z" />
    <glyph glyph-name="greater" unicode="&#x3e;" horiz-adv-x="1716" 
d="M217 973v250l1282 -463v-236l-1282 -463v250l965 330z" />
    <glyph glyph-name="question" unicode="?" horiz-adv-x="1188" 
d="M709 504l-361.001 -0.00195312v49c0 54.667 11 103.167 33 145.5s68.333 96.166 139 161.499l64 58c38 34.667 65.833 67.334 83.5 98.001s26.5 61.334 26.5 92.001c0 46.667 -16 83.167 -48 109.5s-76.667 39.5 -134 39.5c-54 0 -112.333 -11.167 -175 -33.5
s-128 -55.5 -196 -99.5v314c80.667 28 154.334 48.667 221.001 62s131 20 193 20c162.667 0 286.667 -33.167 372 -99.5s128 -163.166 128 -290.499c0 -65.333 -13 -123.833 -39 -175.5s-70.333 -107.167 -133 -166.5l-64 -57c-45.333 -41.333 -75 -74.5 -89 -99.5
s-21 -52.5 -21 -82.5v-45zM347.999 355.998h361v-356h-361v356z" />
    <glyph glyph-name="at" unicode="@" horiz-adv-x="2048" 
d="M831 539c0 -82 17.501 -146.667 52.501 -194s82.5 -71 142.5 -71c59.333 0 106.666 23.833 141.999 71.5s53 112.167 53 193.5c0 80.667 -17.833 144.5 -53.5 191.5s-83.5 70.5 -143.5 70.5c-58.667 0 -105.5 -23.5 -140.5 -70.5s-52.5 -110.833 -52.5 -191.5zM1241 238
c-20 -47.333 -52.1709 -84.167 -96.5039 -110.5s-96.166 -39.5 -155.499 -39.5c-114.667 0 -207.834 41.5 -279.501 124.5s-107.5 191.167 -107.5 324.5s36 241.666 108 324.999s165 125 279 125c59.333 0 111.166 -13.333 155.499 -40s76.5 -63.667 96.5 -111v131h209v-693
c82.667 12.667 147.667 52.5 195 119.5s71 152.833 71 257.5c0 66.667 -9.66699 129.167 -29 187.5s-48.666 111.833 -87.999 160.5c-63.333 81.333 -142.5 144 -237.5 188s-197.833 66 -308.5 66c-77.333 0 -151.333 -10.167 -222 -30.5s-136 -50.166 -196 -89.499
c-98.667 -65.333 -175.5 -149.833 -230.5 -253.5s-82.5 -215.834 -82.5 -336.501c0 -99.333 17.833 -192.5 53.5 -279.5s87.167 -163.833 154.5 -230.5c66.667 -65.333 143.167 -115.166 229.5 -149.499s178.5 -51.5 276.5 -51.5c84 0 168 15.667 252 47
s155.667 73.666 215 126.999l107 -162c-83.333 -64.667 -174.166 -114.167 -272.499 -148.5s-198.166 -51.5 -299.499 -51.5c-123.333 0 -239.666 21.833 -348.999 65.5s-206.666 107.167 -291.999 190.5s-150.333 179.833 -195 289.5s-67 227.5 -67 353.5
c0 121.333 22.667 237 68 347s110 206.667 194 290c84 82.667 181.833 146.667 293.5 192s227.5 68 347.5 68c149.333 0 285 -28.5 407 -85.5s224 -139.167 306 -246.5c50 -65.333 87.833 -136.166 113.5 -212.499s38.5 -156.5 38.5 -240.5
c0 -180.667 -54.333 -321 -163 -421s-262 -150 -460 -150h-39v154z" />
    <glyph glyph-name="A" unicode="A" horiz-adv-x="1585" 
d="M1094 272h-602l-95 -272h-387l553 1493h459l553 -1493h-387zM588 549h409l-204 594z" />
    <glyph glyph-name="B" unicode="B" horiz-adv-x="1561" 
d="M786 915c60.667 0 106.667 13.333 138 40s47 66 47 118c0 51.333 -15.667 90.5 -47 117.5s-77.333 40.5 -138 40.5h-213v-316h213zM799 262c77.333 0 135.5 16.333 174.5 49s58.5 82 58.5 148c0 64.667 -19.333 113.167 -58 145.5s-97 48.5 -175 48.5h-226v-391h226z
M1157 799c82.667 -24 146.667 -68.333 192 -133s68 -144 68 -238c0 -144 -48.667 -251.333 -146 -322s-245.333 -106 -444 -106h-639v1493h578c207.333 0 357.5 -31.333 450.5 -94s139.5 -163 139.5 -301c0 -72.667 -17 -134.5 -51 -185.5s-83.333 -88.833 -148 -113.5z" />
    <glyph glyph-name="C" unicode="C" horiz-adv-x="1503" 
d="M1372 82c-70.667 -36.667 -144.334 -64.334 -221.001 -83.001s-156.667 -28 -240 -28c-248.667 0 -445.667 69.5 -591 208.5s-218 327.5 -218 565.5c0 238.667 72.667 427.5 218 566.5s342.333 208.5 591 208.5c83.333 0 163.333 -9.33301 240 -28
s150.334 -46.334 221.001 -83.001v-309c-71.333 48.667 -141.666 84.334 -210.999 107.001s-142.333 34 -219 34c-137.333 0 -245.333 -44 -324 -132s-118 -209.333 -118 -364c0 -154 39.333 -275 118 -363s186.667 -132 324 -132c76.667 0 149.667 11.333 219 34
s139.666 58.334 210.999 107.001v-309z" />
    <glyph glyph-name="D" unicode="D" horiz-adv-x="1700" 
d="M573 1202v-911h138c157.333 0 277.5 39 360.5 117s124.5 191.333 124.5 340c0 148 -41.333 260.667 -124 338s-203 116 -361 116h-138zM188 1493l406 -0.00292969c226.667 0 395.5 -16.167 506.5 -48.5s206.167 -87.166 285.5 -164.499c70 -67.333 122 -145 156 -233
s51 -187.667 51 -299c0 -112.667 -17 -213.167 -51 -301.5s-86 -166.166 -156 -233.499c-80 -77.333 -176 -132.166 -288 -164.499s-280 -48.5 -504 -48.5h-406v1493z" />
    <glyph glyph-name="E" unicode="E" horiz-adv-x="1399" 
d="M188 1493h1039v-291h-654v-278h615v-291h-615v-342h676v-291h-1061v1493z" />
    <glyph glyph-name="F" unicode="F" horiz-adv-x="1399" 
d="M188 1493h1039v-291h-654v-278h615v-291h-615v-633h-385v1493z" />
    <glyph glyph-name="G" unicode="G" horiz-adv-x="1681" 
d="M1530 111c-96 -46.667 -195.667 -81.665 -299 -104.998s-210 -35 -320 -35c-248.667 0 -445.667 69.5 -591 208.5s-218 327.5 -218 565.5c0 240.667 74 430 222 568s350.667 207 608 207c99.333 0 194.5 -9.33301 285.5 -28s176.833 -46.334 257.5 -83.001v-309
c-83.333 47.333 -166.166 82.666 -248.499 105.999s-164.833 35 -247.5 35c-153.333 0 -271.5 -42.833 -354.5 -128.5s-124.5 -208.167 -124.5 -367.5c0 -158 40 -280 120 -366s193.667 -129 341 -129c40 0 77.167 2.5 111.5 7.5s65.166 12.833 92.499 23.5v290h-235v258
h600v-718z" />
    <glyph glyph-name="H" unicode="H" horiz-adv-x="1714" 
d="M188 1493h385v-569h568v569h385v-1493h-385v633h-568v-633h-385v1493z" />
    <glyph glyph-name="I" unicode="I" horiz-adv-x="762" 
d="M188 1493h385v-1493h-385v1493z" />
    <glyph glyph-name="J" unicode="J" horiz-adv-x="762" 
d="M188 1493l385 -0.000976562v-1348c0 -186 -50.5 -325 -151.5 -417s-253.833 -138 -458.5 -138h-78v291h60c80 0 140.5 22.333 181.5 67s61.5 110.334 61.5 197.001v1348z" />
    <glyph glyph-name="K" unicode="K" horiz-adv-x="1587" 
d="M188 1493h385v-545l555 545h447l-719 -707l793 -786h-482l-594 588v-588h-385v1493z" />
    <glyph glyph-name="L" unicode="L" horiz-adv-x="1305" 
d="M188 1493h385v-1202h676v-291h-1061v1493z" />
    <glyph glyph-name="M" unicode="M" horiz-adv-x="2038" 
d="M188 1493h490l340 -799l342 799h489v-1493h-364v1092l-344 -805h-244l-344 805v-1092h-365v1493z" />
    <glyph glyph-name="N" unicode="N" horiz-adv-x="1714" 
d="M188 1493h430l543 -1024v1024h365v-1493h-430l-543 1024v-1024h-365v1493z" />
    <glyph glyph-name="O" unicode="O" horiz-adv-x="1741" 
d="M870 1241c-117.333 0 -208.333 -43.333 -273 -130s-97 -208.667 -97 -366c0 -156.667 32.333 -278.334 97 -365.001s155.667 -130 273 -130c118 0 209.333 43.333 274 130s97 208.334 97 365.001c0 157.333 -32.333 279.333 -97 366s-156 130 -274 130zM870 1520
c240 0 428 -68.667 564 -206s204 -327 204 -569c0 -241.333 -68 -430.666 -204 -567.999s-324 -206 -564 -206c-239.333 0 -427.166 68.667 -563.499 206s-204.5 326.666 -204.5 567.999c0 242 68.167 431.667 204.5 569s324.166 206 563.499 206z" />
    <glyph glyph-name="P" unicode="P" horiz-adv-x="1501" 
d="M188 1493h639c190 0 335.833 -42.167 437.5 -126.5s152.5 -204.5 152.5 -360.5c0 -156.667 -50.833 -277.167 -152.5 -361.5s-247.5 -126.5 -437.5 -126.5h-254v-518h-385v1493zM573 1214v-417h213c74.667 0 132.334 18.167 173.001 54.5s61 87.833 61 154.5
s-20.333 118 -61 154s-98.334 54 -173.001 54h-213z" />
    <glyph glyph-name="Q" unicode="Q" horiz-adv-x="1741" 
d="M911 -27l-29.998 -0.000976562c-246 0 -437.333 68 -574 204s-205 325.333 -205 568c0 242 68.167 431.667 204.5 569s324.166 206 563.499 206c242 0 430.5 -68 565.5 -204s202.5 -326.333 202.5 -571c0 -168 -35.833 -312.667 -107.5 -434
s-174.834 -212.666 -309.501 -273.999l301 -336h-367zM870.002 1241c-117.333 0 -208.333 -43.334 -273 -130.001s-97 -208.667 -97 -366c0 -160 31.667 -282.5 95 -367.5s155 -127.5 275 -127.5c118 0 209.333 43.333 274 130s97 208.334 97 365.001
c0 157.333 -32.333 279.333 -97 366s-156 130 -274 130z" />
    <glyph glyph-name="R" unicode="R" horiz-adv-x="1577" 
d="M735 831c80.667 0 138.5 15 173.5 45s52.5 79.333 52.5 148c0 68 -17.5 116.667 -52.5 146s-92.833 44 -173.5 44h-162v-383h162zM573 565l-0.000976562 -565h-385v1493h588c196.667 0 340.834 -33 432.501 -99s137.5 -170.333 137.5 -313
c0 -98.667 -23.833 -179.667 -71.5 -243s-119.5 -110 -215.5 -140c52.667 -12 99.834 -39.167 141.501 -81.5s83.834 -106.5 126.501 -192.5l209 -424h-410l-182 371c-36.667 74.667 -73.834 125.667 -111.501 153s-87.834 41 -150.501 41h-109z" />
    <glyph glyph-name="S" unicode="S" horiz-adv-x="1475" 
d="M1227 1446l-0.000976562 -316.001c-82 36.667 -162 64.334 -240 83.001s-151.667 28 -221 28c-92 0 -160 -12.667 -204 -38s-66 -64.666 -66 -117.999c0 -40 14.833 -71.167 44.5 -93.5s83.5 -41.5 161.5 -57.5l164 -33c166 -33.333 284 -84 354 -152
s105 -164.667 105 -290c0 -164.667 -48.833 -287.167 -146.5 -367.5s-246.834 -120.5 -447.501 -120.5c-94.667 0 -189.667 9 -285 27s-190.666 44.667 -285.999 80v325c95.333 -50.667 187.5 -88.834 276.5 -114.501s174.833 -38.5 257.5 -38.5c84 0 148.333 14 193 42
s67 68 67 120c0 46.667 -15.167 82.667 -45.5 108s-90.833 48 -181.5 68l-149 33c-149.333 32 -258.5 83 -327.5 153s-103.5 164.333 -103.5 283c0 148.667 48 263 144 343s234 120 414 120c82 0 166.333 -6.16699 253 -18.5s176.334 -30.833 269.001 -55.5z" />
    <glyph glyph-name="T" unicode="T" horiz-adv-x="1397" 
d="M10 1493h1376v-291h-495v-1202h-385v1202h-496v291z" />
    <glyph glyph-name="U" unicode="U" horiz-adv-x="1663" 
d="M188 1493h385.001v-895c0 -123.333 20.167 -211.5 60.5 -264.5s106.166 -79.5 197.499 -79.5c92 0 158.167 26.5 198.5 79.5s60.5 141.167 60.5 264.5v895h385v-895c0 -211.333 -53 -368.666 -159 -471.999s-267.667 -155 -485 -155c-216.667 0 -378 51.667 -484 155
s-159 260.666 -159 471.999v895z" />
    <glyph glyph-name="V" unicode="V" horiz-adv-x="1585" 
d="M10 1493h387l396 -1102l395 1102h387l-553 -1493h-459z" />
    <glyph glyph-name="W" unicode="W" horiz-adv-x="2259" 
d="M61 1493h369l258 -1085l256 1085h371l256 -1085l258 1085h366l-352 -1493h-444l-271 1135l-268 -1135h-444z" />
    <glyph glyph-name="X" unicode="X" horiz-adv-x="1579" 
d="M1020 762l518 -762h-401l-349 510l-346 -510h-403l518 762l-498 731h402l327 -481l326 481h404z" />
    <glyph glyph-name="Y" unicode="Y" horiz-adv-x="1483" 
d="M-20 1493h421l340 -532l340 532h422l-569 -864v-629h-385v629z" />
    <glyph glyph-name="Z" unicode="Z" horiz-adv-x="1485" 
d="M115 1493h1255v-233l-801 -969h824v-291h-1301v233l801 969h-778v291z" />
    <glyph glyph-name="bracketleft" unicode="[" horiz-adv-x="936" 
d="M176 1556h621v-225h-281v-1376h281v-225h-621v1826z" />
    <glyph glyph-name="backslash" unicode="\" horiz-adv-x="748" 
d="M526 -190l-526 1683h221l527 -1683h-222z" />
    <glyph glyph-name="bracketright" unicode="]" horiz-adv-x="936" 
d="M760 -270h-621v225h281v1376h-281v225h621v-1826z" />
    <glyph glyph-name="asciicircum" unicode="^" horiz-adv-x="1716" 
d="M981 1493l528 -557h-241l-410 301l-409 -301h-242l528 557h246z" />
    <glyph glyph-name="underscore" unicode="_" 
d="M1024 -293v-190h-1024v190h1024z" />
    <glyph glyph-name="grave" unicode="`" 
d="M377 1638l282 -376h-196l-369 376h283z" />
    <glyph glyph-name="a" unicode="a" horiz-adv-x="1382" 
d="M674 504c-74.667 0 -130.833 -12.668 -168.5 -38.001s-56.5 -62.666 -56.5 -111.999c0 -45.333 15.167 -80.833 45.5 -106.5s72.5 -38.5 126.5 -38.5c67.333 0 124 24.167 170 72.5s69 108.833 69 181.5v41h-186zM1221 638.999l0.00292969 -639h-361v166
c-48 -68 -102 -117.5 -162 -148.5s-133 -46.5 -219 -46.5c-116 0 -210.167 33.833 -282.5 101.5s-108.5 155.5 -108.5 263.5c0 131.333 45.167 227.666 135.5 288.999s232.166 92 425.499 92h211v28c0 56.667 -22.333 98.167 -67 124.5s-114.334 39.5 -209.001 39.5
c-76.667 0 -148 -7.66699 -214 -23s-127.333 -38.333 -184 -69v273c76.667 18.667 153.667 32.834 231 42.501s154.666 14.5 231.999 14.5c202 0 347.833 -39.833 437.5 -119.5s134.5 -209.167 134.5 -388.5z" />
    <glyph glyph-name="b" unicode="b" horiz-adv-x="1466" 
d="M768 231c76.667 0 135.167 28 175.5 84s60.5 137.333 60.5 244s-20.167 188 -60.5 244s-98.833 84 -175.5 84s-135.5 -28.167 -176.5 -84.5s-61.5 -137.5 -61.5 -243.5s20.5 -187.167 61.5 -243.5s99.833 -84.5 176.5 -84.5zM530 956
c49.333 65.333 104 113.502 164 144.502s129 46.5 207 46.5c138 0 251.333 -54.833 340 -164.5s133 -250.834 133 -423.501s-44.333 -313.834 -133 -423.501s-202 -164.5 -340 -164.5c-78 0 -147 15.5 -207 46.5s-114.667 79.167 -164 144.5v-162h-358v1556h358v-600z" />
    <glyph glyph-name="c" unicode="c" horiz-adv-x="1214" 
d="M1077 1085v-292.003c-48.667 33.333 -97.5 58 -146.5 74s-99.833 24 -152.5 24c-100 0 -177.833 -29.167 -233.5 -87.5s-83.5 -139.833 -83.5 -244.5s27.833 -186.167 83.5 -244.5s133.5 -87.5 233.5 -87.5c56 0 109.167 8.33301 159.5 25s96.833 41.334 139.5 74.001
v-293c-56 -20.667 -112.833 -36.167 -170.5 -46.5s-115.5 -15.5 -173.5 -15.5c-202 0 -360 51.833 -474 155.5s-171 247.834 -171 432.501s57 328.834 171 432.501s272 155.5 474 155.5c58.667 0 116.5 -5.16699 173.5 -15.5s113.833 -25.833 170.5 -46.5z" />
    <glyph glyph-name="d" unicode="d" horiz-adv-x="1466" 
d="M934 956l-0.000976562 599.998h360v-1556h-360v162c-49.333 -66 -103.666 -114.333 -162.999 -145s-128 -46 -206 -46c-138 0 -251.333 54.833 -340 164.5s-133 250.834 -133 423.501s44.333 313.834 133 423.501s202 164.5 340 164.5
c77.333 0 145.833 -15.5 205.5 -46.5s114.167 -79.167 163.5 -144.5zM697.999 230.998c76.667 0 135.167 28 175.5 84s60.5 137.333 60.5 244s-20.167 188 -60.5 244s-98.833 84 -175.5 84c-76 0 -134.167 -28 -174.5 -84s-60.5 -137.333 -60.5 -244s20.167 -188 60.5 -244
s98.5 -84 174.5 -84z" />
    <glyph glyph-name="e" unicode="e" horiz-adv-x="1389" 
d="M1290 563l0.00292969 -102h-837c8.66699 -84 39 -147 91 -189s124.667 -63 218 -63c75.333 0 152.5 11.167 231.5 33.5s160.167 56.166 243.5 101.499v-276c-84.667 -32 -169.334 -56.167 -254.001 -72.5s-169.334 -24.5 -254.001 -24.5
c-202.667 0 -360.167 51.5 -472.5 154.5s-168.5 247.5 -168.5 433.5c0 182.667 55.167 326.334 165.5 431.001s262.166 157 455.499 157c176 0 316.833 -53 422.5 -159s158.5 -247.667 158.5 -425zM922.003 682c0 68 -19.834 122.833 -59.501 164.5s-91.5 62.5 -155.5 62.5
c-69.333 0 -125.666 -19.5 -168.999 -58.5s-70.333 -95.167 -81 -168.5h465z" />
    <glyph glyph-name="f" unicode="f" horiz-adv-x="891" 
d="M909 1556v-235.001h-198c-50.667 0 -86 -9.16699 -106 -27.5s-30 -50.166 -30 -95.499v-78h306v-256h-306v-864h-358v864h-178v256h178v78c0 122 34 212.167 102 270.5s173.333 87.5 316 87.5h274z" />
    <glyph glyph-name="g" unicode="g" horiz-adv-x="1466" 
d="M934 190c-49.333 -65.333 -103.666 -113.333 -162.999 -144s-128 -46 -206 -46c-136.667 -0 -249.667 53.833 -339 161.5s-134 244.834 -134 411.501c0 167.333 44.667 304.5 134 411.5s202.333 160.5 339 160.5c78 0 146.667 -15.333 206 -46s113.666 -79 162.999 -145
v166h360v-1007c0 -180 -56.833 -317.5 -170.5 -412.5s-278.5 -142.5 -494.5 -142.5c-70 0 -137.667 5.33301 -203 16s-131 27 -197 49v279c62.667 -36 124 -62.833 184 -80.5s120.333 -26.5 181 -26.5c117.333 0 203.333 25.667 258 77s82 131.666 82 240.999v77zM698 887
c-74 0 -131.667 -27.333 -173 -82s-62 -132 -62 -232c0 -102.667 20 -180.5 60 -233.5s98.333 -79.5 175 -79.5c74.667 0 132.667 27.333 174 82s62 131.667 62 231c0 100 -20.667 177.333 -62 232s-99.333 82 -174 82z" />
    <glyph glyph-name="h" unicode="h" horiz-adv-x="1458" 
d="M1298 682l0.000976562 -682.001h-360v111v409c0 98 -2.16699 165.333 -6.5 202s-11.833 63.667 -22.5 81c-14 23.333 -33 41.5 -57 54.5s-51.333 19.5 -82 19.5c-74.667 0 -133.334 -28.833 -176.001 -86.5s-64 -137.5 -64 -239.5v-551h-358v1556h358v-600
c54 65.333 111.333 113.5 172 144.5s127.667 46.5 201 46.5c129.333 0 227.5 -39.667 294.5 -119s100.5 -194.666 100.5 -345.999z" />
    <glyph glyph-name="i" unicode="i" horiz-adv-x="702" 
d="M172 1120h358v-1120h-358v1120zM172 1556h358v-292h-358v292z" />
    <glyph glyph-name="j" unicode="j" horiz-adv-x="702" 
d="M172 1120h358v-1100c0 -150 -36 -264.5 -108 -343.5s-176.333 -118.5 -313 -118.5h-177v235h62c68 0 114.667 15.333 140 46s38 91 38 181v1100zM172 1556h358v-292h-358v292z" />
    <glyph glyph-name="k" unicode="k" horiz-adv-x="1362" 
d="M172 1556h358v-847l412 411h416l-547 -514l590 -606h-434l-437 467v-467h-358v1556z" />
    <glyph glyph-name="l" unicode="l" horiz-adv-x="702" 
d="M172 1556h358v-1556h-358v1556z" />
    <glyph glyph-name="m" unicode="m" horiz-adv-x="2134" 
d="M1210 934c45.333 69.333 99.168 122.166 161.501 158.499s130.833 54.5 205.5 54.5c128.667 0 226.667 -39.667 294 -119s101 -194.666 101 -345.999v-682h-360v584c0.666992 8.66699 1.16699 17.667 1.5 27s0.5 22.666 0.5 39.999c0 79.333 -11.667 136.833 -35 172.5
s-61 53.5 -113 53.5c-68 0 -120.5 -28 -157.5 -84s-56.167 -137 -57.5 -243v-550h-360v584c0 124 -10.667 203.833 -32 239.5s-59.333 53.5 -114 53.5c-68.667 0 -121.667 -28.167 -159 -84.5s-56 -136.833 -56 -241.5v-551h-360v1120h360v-164
c44 63.333 94.5 111 151.5 143s119.833 48 188.5 48c77.333 0 145.666 -18.667 204.999 -56s104.333 -89.666 135 -156.999z" />
    <glyph glyph-name="n" unicode="n" horiz-adv-x="1458" 
d="M1298 682l0.000976562 -682.002h-360v111v411c0 96.667 -2.16699 163.334 -6.5 200.001s-11.833 63.667 -22.5 81c-14 23.333 -33 41.5 -57 54.5s-51.333 19.5 -82 19.5c-74.667 0 -133.334 -28.833 -176.001 -86.5s-64 -137.5 -64 -239.5v-551h-358v1120h358v-164
c54 65.333 111.333 113.5 172 144.5s127.667 46.5 201 46.5c129.333 0 227.5 -39.667 294.5 -119s100.5 -194.666 100.5 -345.999z" />
    <glyph glyph-name="o" unicode="o" horiz-adv-x="1407" 
d="M705 891c-79.333 0 -139.833 -28.5 -181.5 -85.5s-62.5 -139.167 -62.5 -246.5s20.833 -189.5 62.5 -246.5s102.167 -85.5 181.5 -85.5c78 0 137.667 28.5 179 85.5s62 139.167 62 246.5s-20.667 189.5 -62 246.5s-101 85.5 -179 85.5zM705 1147
c192.667 0 343.167 -52 451.5 -156s162.5 -248 162.5 -432s-54.167 -328 -162.5 -432s-258.833 -156 -451.5 -156c-193.333 0 -344.5 52 -453.5 156s-163.5 248 -163.5 432s54.5 328 163.5 432s260.167 156 453.5 156z" />
    <glyph glyph-name="p" unicode="p" horiz-adv-x="1466" 
d="M530 162v-587.998h-358v1546h358v-164c49.333 65.333 104 113.5 164 144.5s129 46.5 207 46.5c138 0 251.333 -54.833 340 -164.5s133 -250.834 133 -423.501s-44.333 -313.834 -133 -423.501s-202 -164.5 -340 -164.5c-78 0 -147 15.5 -207 46.5
s-114.667 79.167 -164 144.5zM768 887.002c-76.667 0 -135.5 -28.167 -176.5 -84.5s-61.5 -137.5 -61.5 -243.5s20.5 -187.167 61.5 -243.5s99.833 -84.5 176.5 -84.5s135.167 28 175.5 84s60.5 137.333 60.5 244s-20.167 188 -60.5 244s-98.833 84 -175.5 84z" />
    <glyph glyph-name="q" unicode="q" horiz-adv-x="1466" 
d="M698 887c-76 0 -134.167 -28 -174.5 -84s-60.5 -137.333 -60.5 -244s20.167 -188 60.5 -244s98.5 -84 174.5 -84c76.667 0 135.167 28 175.5 84s60.5 137.333 60.5 244s-20.167 188 -60.5 244s-98.833 84 -175.5 84zM934 162
c-49.333 -66 -103.666 -114.334 -162.999 -145.001s-128 -46 -206 -46c-138 0 -251.333 54.833 -340 164.5s-133 250.834 -133 423.501s44.333 313.5 133 422.5s202 163.5 340 163.5c78 0 146.667 -15.333 206 -46s113.666 -79 162.999 -145v166h360v-1546h-360v588z" />
    <glyph glyph-name="r" unicode="r" horiz-adv-x="1010" 
d="M1004 815c-31.333 14.667 -62.5 25.5 -93.5 32.5s-62.167 10.5 -93.5 10.5c-92 0 -162.833 -29.5 -212.5 -88.5s-74.5 -143.5 -74.5 -253.5v-516h-358v1120h358v-184c46 73.333 98.833 126.833 158.5 160.5s131.167 50.5 214.5 50.5c12 0 25 -0.5 39 -1.5
s34.333 -3.16699 61 -6.5z" />
    <glyph glyph-name="s" unicode="s" horiz-adv-x="1219" 
d="M1047 1085v-272.003c-76.667 32 -150.667 56 -222 72s-138.666 24 -201.999 24c-68 0 -118.5 -8.5 -151.5 -25.5s-49.5 -43.167 -49.5 -78.5c0 -28.667 12.5 -50.667 37.5 -66s69.833 -26.666 134.5 -33.999l63 -9c183.333 -23.333 306.666 -61.666 369.999 -114.999
s95 -137 95 -251c0 -119.333 -44 -209 -132 -269s-219.333 -90 -394 -90c-74 0 -150.5 5.83301 -229.5 17.5s-160.167 29.167 -243.5 52.5v272c71.333 -34.667 144.5 -60.667 219.5 -78s151.167 -26 228.5 -26c70 0 122.667 9.66699 158 29s53 48 53 86
c0 32 -12.167 55.833 -36.5 71.5s-72.833 27.834 -145.5 36.501l-63 8c-159.333 20 -271 57 -335 111s-96 136 -96 246c0 118.667 40.667 206.667 122 264s206 86 374 86c66 0 135.333 -5 208 -15s151.667 -25.667 237 -47z" />
    <glyph glyph-name="t" unicode="t" horiz-adv-x="979" 
d="M563 1438v-318h369v-256h-369v-475c0 -52 10.333 -87.167 31 -105.5s61.667 -27.5 123 -27.5h184v-256h-307c-141.333 0 -241.5 29.5 -300.5 88.5s-88.5 159.167 -88.5 300.5v475h-178v256h178v318h358z" />
    <glyph glyph-name="u" unicode="u" horiz-adv-x="1458" 
d="M160 436l-0.00292969 684.003h360v-112c0 -60.667 -0.333008 -136.834 -1 -228.501s-1 -152.834 -1 -183.501c0 -90 2.33301 -154.833 7 -194.5s12.667 -68.5 24 -86.5c14.667 -23.333 33.834 -41.333 57.501 -54s50.834 -19 81.501 -19
c74.667 0 133.334 28.667 176.001 86s64 137 64 239v553h358v-1120h-358v162c-54 -65.333 -111.167 -113.5 -171.5 -144.5s-126.833 -46.5 -199.5 -46.5c-129.333 0 -227.833 39.667 -295.5 119s-101.5 194.666 -101.5 345.999z" />
    <glyph glyph-name="v" unicode="v" horiz-adv-x="1335" 
d="M31 1120h358l279 -774l278 774h359l-441 -1120h-393z" />
    <glyph glyph-name="w" unicode="w" horiz-adv-x="1892" 
d="M72 1120h348l188 -772l189 772h299l188 -764l189 764h348l-295 -1120h-391l-189 770l-188 -770h-391z" />
    <glyph glyph-name="x" unicode="x" horiz-adv-x="1321" 
d="M455 573l-404 547h379l229 -332l232 332h379l-404 -545l424 -575h-379l-252 354l-249 -354h-379z" />
    <glyph glyph-name="y" unicode="y" horiz-adv-x="1335" 
d="M25 1120l357.999 0.000976562l301 -760l256 760h358l-471 -1226c-47.333 -124.667 -102.5 -211.834 -165.5 -261.501s-146.167 -74.5 -249.5 -74.5h-207v235h112c60.667 0 104.834 9.66699 132.501 29s49.167 54 64.5 104l10 31z" />
    <glyph glyph-name="z" unicode="z" horiz-adv-x="1192" 
d="M117 1120h977v-250l-590 -614h590v-256h-1002v250l590 614h-565v256z" />
    <glyph glyph-name="braceleft" unicode="{" horiz-adv-x="1458" 
d="M1202 -109v-225.001h-217c-145.333 0 -251.333 29.333 -318 88s-100 152.334 -100 281.001v192c0 100 -18 169.5 -54 208.5s-101.333 58.5 -196 58.5h-61v223h61c94.667 0 160 19.333 196 58s54 108 54 208v205c0 128.667 33.333 222.167 100 280.5
s172.667 87.5 318 87.5h217v-225h-69c-94 0 -155.167 -14.5 -183.5 -43.5s-42.5 -90.833 -42.5 -185.5v-166c0 -104.667 -15 -180.667 -45 -228s-81.667 -79.333 -155 -96c74 -18 125.833 -50.667 155.5 -98s44.5 -123 44.5 -227v-166c0 -95.333 14.167 -157.5 42.5 -186.5
s89.5 -43.5 183.5 -43.5h69z" />
    <glyph glyph-name="bar" unicode="|" horiz-adv-x="748" 
d="M487 1565v-2048h-227v2048h227z" />
    <glyph glyph-name="braceright" unicode="}" horiz-adv-x="1458" 
d="M256 -109l70 0.000976562c93.333 0 154.166 14.5 182.499 43.5s42.5 91.167 42.5 186.5v166c0 104 15 179.667 45 227s82 80 156 98c-74 16.667 -126 48.667 -156 96s-45 123.333 -45 228v166c0 94.667 -14.167 156.5 -42.5 185.5s-89.166 43.5 -182.499 43.5h-70v225
h217c145.333 0 251.333 -29.167 318 -87.5s100 -151.833 100 -280.5v-205c0 -100 18 -169.333 54 -208s101.333 -58 196 -58h61v-223h-61c-94.667 0 -160 -19.5 -196 -58.5s-54 -108.5 -54 -208.5v-192c0 -128.667 -33.333 -222.334 -100 -281.001s-172.667 -88 -318 -88
h-217v225z" />
    <glyph glyph-name="asciitilde" unicode="~" horiz-adv-x="1716" 
d="M1499 850l0.000976562 -244c-70.667 -53.333 -135.834 -91.5 -195.501 -114.5s-121.5 -34.5 -185.5 -34.5c-71.333 0 -154.666 19.333 -249.999 58c-9.33301 4 -16.666 7 -21.999 9l-22 9c-103.333 40.667 -186.333 61 -249 61c-58.667 0 -116.667 -12.833 -174 -38.5
s-118.666 -66.167 -183.999 -121.5v244c71.333 53.333 136.666 91.5 195.999 114.5s121 34.5 185 34.5c71.333 0 154.666 -19.333 249.999 -58l22 -9l22 -9c103.333 -40.667 186.333 -61 249 -61c57.333 0 114.166 12.5 170.499 37.5s118.833 65.833 187.5 122.5z" />
    <glyph glyph-name="nonbreakingspace" unicode="&#xa0;" horiz-adv-x="1425" 
 />
    <glyph glyph-name="exclamdown" unicode="&#xa1;" horiz-adv-x="934" 
d="M287 0v573l51 418h258l51 -418v-573h-360zM287 1137v356h360v-356h-360z" />
    <glyph glyph-name="cent" unicode="&#xa2;" horiz-adv-x="1425" 
d="M702 858c-52 -29.333 -90.833 -68.5 -116.5 -117.5s-38.5 -109.5 -38.5 -181.5c0 -72.667 12.833 -133.667 38.5 -183s64.5 -88 116.5 -116v598zM1161 1085l0.00292969 -292.001c-49.333 32 -97.833 56.333 -145.5 73s-93.167 25 -136.5 25h-15v-663
c59.333 0.666992 114.166 9.33398 164.499 26.001s94.5 40.667 132.5 72v-293c-55.333 -20 -107.333 -35.333 -156 -46s-92.334 -16 -131.001 -16h-10v-284h-162v288c-174.667 26.667 -306.334 90.334 -395.001 191.001s-133 237 -133 409c0 162.667 45 292.5 135 389.5
s221 157.167 393 180.5v287h162l1 -287c47.333 -2 95.5 -7.83301 144.5 -17.5s99.5 -23.834 151.5 -42.501z" />
    <glyph glyph-name="sterling" unicode="&#xa3;" horiz-adv-x="1425" 
d="M1243 1466l0.00195312 -286.001c-46.667 26 -94.667 45.333 -144 58s-99.666 19 -150.999 19c-78.667 0 -136.834 -20.833 -174.501 -62.5s-56.5 -106.167 -56.5 -193.5v-170h373v-239h-373v-326h538v-266h-1130v266h227v326h-194v239h194v170
c0 180.667 42.333 312.334 127 395.001s218.667 124 402 124c61.333 0 122.166 -4.5 182.499 -13.5s120.166 -22.5 179.499 -40.5z" />
    <glyph glyph-name="currency" unicode="&#xa4;" horiz-adv-x="1303" 
d="M434 268l-206.999 -207l-153 154l207 207c-18.667 32.667 -32.667 66.834 -42 102.501s-14 74.5 -14 116.5s5 81 15 117s25 69.333 45 100l-209 205l153 154l207 -207c32 20 66 34.833 102 44.5s74.333 14.5 115 14.5c36 0 72 -4.5 108 -13.5s73 -22.833 111 -41.5
l207 207l152 -154l-207 -207c19.333 -36.667 33.666 -73.334 42.999 -110.001s14 -73 14 -109c0 -42 -4.83301 -80.5 -14.5 -115.5s-24.5 -68.167 -44.5 -99.5l207 -207l-154 -153l-207 206c-30.667 -20 -63.667 -34.833 -99 -44.5s-74 -14.5 -116 -14.5
c-38.667 0 -76 4.5 -112 13.5s-71.667 22.833 -107 41.5zM653.001 422c60.667 0 112.333 21.168 155 63.501s64 94.166 64 155.499s-21.167 113.166 -63.5 155.499s-94.166 63.5 -155.499 63.5c-60.667 0 -112.334 -21.167 -155.001 -63.5s-64 -94.166 -64 -155.499
c0 -62 21 -114 63 -156s94 -63 156 -63z" />
    <glyph glyph-name="yen" unicode="&#xa5;" horiz-adv-x="1425" 
d="M1358 416h-455v-416h-381v416h-454v194h454v66l-49 86h-405v192h292l-335 539h399l289 -461l288 461h400l-336 -539h293v-192h-406l-49 -86v-66h455v-194z" />
    <glyph glyph-name="brokenbar" unicode="&#xa6;" horiz-adv-x="748" 
d="M487 1432v-758h-227v758h227zM487 408v-758h-227v758h227z" />
    <glyph glyph-name="section" unicode="&#xa7;" 
d="M885 1462l-0.00195312 -227c-66 26 -125.333 45.5 -178 58.5s-98 19.5 -136 19.5c-50 0 -87.667 -8.16699 -113 -24.5s-38 -40.166 -38 -71.499c0 -44.667 62.667 -93.334 188 -146.001c17.333 -7.33301 30.333 -12.666 39 -15.999
c140 -59.333 236.5 -117.833 289.5 -175.5s79.5 -128.167 79.5 -211.5c0 -78 -18.833 -143.5 -56.5 -196.5s-95.5 -95.5 -173.5 -127.5c51.333 -27.333 89.5 -59.833 114.5 -97.5s37.5 -80.834 37.5 -129.501c0 -96.667 -40.333 -172.834 -121 -228.501
s-192 -83.5 -334 -83.5c-56.667 0 -115.167 4.83301 -175.5 14.5s-124.5 24.167 -192.5 43.5v237c76.667 -27.333 145.334 -48.166 206.001 -62.499s110 -21.5 148 -21.5c43.333 0 78 8.33301 104 25s39 38.334 39 65.001c0 46.667 -60 94.667 -180 144
c-24 9.33301 -42.333 16.666 -55 21.999c-135.333 58 -229.666 116.833 -282.999 176.5s-80 132.834 -80 219.501c0 69.333 18.5 129.666 55.5 180.999s93.167 94 168.5 128c-50 34 -85.833 69.5 -107.5 106.5s-32.5 80.5 -32.5 130.5c0 96 38.167 171 114.5 225
s181.5 81 315.5 81c56 0 114 -4.83301 174 -14.5s121 -24.167 183 -43.5zM433.998 856c-45.333 -18.667 -79.166 -40.666 -101.499 -65.999s-33.5 -54.666 -33.5 -87.999c0 -44.667 20.5 -83.334 61.5 -116.001s122.167 -71 243.5 -115
c43.333 15.333 76.666 36.166 99.999 62.499s35 56.833 35 91.5c0 44.667 -23 84.667 -69 120s-124.667 72.333 -236 111z" />
    <glyph glyph-name="dieresis" unicode="&#xa8;" 
d="M197 1585h235v-246h-235v246zM592 1585h235v-246h-235v246z" />
    <glyph glyph-name="copyright" unicode="&#xa9;" horiz-adv-x="2048" 
d="M1323 1126l-0.00195312 -215c-38 24.667 -75.5 42.834 -112.5 54.501s-74.5 17.5 -112.5 17.5c-75.333 0 -134.166 -21.333 -176.499 -64s-63.5 -102 -63.5 -178c0 -76.667 21 -136 63 -178s101 -63 177 -63c42.667 0 83.167 6 121.5 18s72.833 29.667 103.5 53v-213
c-43.333 -14.667 -86.833 -25.834 -130.5 -33.501s-86.167 -11.5 -127.5 -11.5c-140.667 0 -253.334 39 -338.001 117s-127 181.667 -127 311c0 130 42.333 233.833 127 311.5s197.334 116.5 338.001 116.5c46 0 90.333 -3.5 133 -10.5s84.334 -17.833 125.001 -32.5z
M1024 1331c-80.667 0 -155.668 -14.501 -225.001 -43.501s-133 -72.5 -191 -130.5s-101.5 -121.5 -130.5 -190.5s-43.5 -144.167 -43.5 -225.5c0 -80.667 14.5 -155.5 43.5 -224.5s72.5 -132.5 130.5 -190.5c57.333 -57.333 120.833 -100.333 190.5 -129
s144.834 -43 225.501 -43c82 0 157.333 14.167 226 42.5s132 71.5 190 129.5s101.5 121.5 130.5 190.5s43.5 143.833 43.5 224.5c0 81.333 -14.5 156.5 -43.5 225.5s-72.5 132.5 -130.5 190.5c-58.667 58.667 -122.5 102.334 -191.5 131.001s-143.833 43 -224.5 43z
M1024 1485c101.333 0 195.833 -18.333 283.5 -55s167.834 -91.334 240.501 -164.001s127 -152.667 163 -240s54 -182.333 54 -285c0 -101.333 -18 -195.5 -54 -282.5s-90.333 -166.833 -163 -239.5s-152.834 -127.334 -240.501 -164.001s-182.167 -55 -283.5 -55
s-195.833 18.333 -283.5 55s-167.834 91.334 -240.501 164.001s-127 152.5 -163 239.5s-54 181.167 -54 282.5c0 102.667 18 197.667 54 285s90.333 167.333 163 240s152.834 127.334 240.501 164.001s182.167 55 283.5 55z" />
    <glyph glyph-name="ordfeminine" unicode="&#xaa;" horiz-adv-x="1155" 
d="M176 573h813v-200h-813v200zM643 1081c-88.667 0 -150.333 -8.66797 -185 -26.001s-52 -46.666 -52 -87.999c0 -34 11 -60.667 33 -80s52.333 -29 91 -29c59.333 0 108 19 146 57s57 86 57 144v22h-90zM1001 1165l0.00488281 -448h-245v127
c-36.667 -50.667 -78.334 -88 -125.001 -112s-101.334 -36 -164.001 -36c-96.667 0 -172.334 22.333 -227.001 67s-82 105.667 -82 183c0 94 35 163 105 207s180.333 66 331 66h137v20c0 37.333 -14.833 65.833 -44.5 85.5s-72.834 29.5 -129.501 29.5
c-58 0 -114.667 -5.83301 -170 -17.5s-109.333 -29.167 -162 -52.5v180c61.333 18.667 120.166 32.667 176.499 42s109.5 14 159.5 14c149.333 0 260 -29.167 332 -87.5s108 -147.5 108 -267.5z" />
    <glyph glyph-name="guillemotleft" unicode="&#xab;" horiz-adv-x="1323" 
d="M651 1063v-242l-293 -221l293 -221v-242l-493 369v186zM1130 1063v-242l-292 -221l292 -221v-242l-493 369v186z" />
    <glyph glyph-name="logicalnot" unicode="&#xac;" horiz-adv-x="1716" 
d="M217 909h1282v-622h-235v385h-1047v237z" />
    <glyph glyph-name="sfthyphen" unicode="&#xad;" horiz-adv-x="850" 
d="M111 735h628v-291h-628v291z" />
    <glyph glyph-name="registered" unicode="&#xae;" horiz-adv-x="2048" 
d="M1024 1331c-80.667 0 -155.668 -14.501 -225.001 -43.501s-133 -72.5 -191 -130.5s-101.5 -121.5 -130.5 -190.5s-43.5 -144.167 -43.5 -225.5c0 -80.667 14.5 -155.5 43.5 -224.5s72.5 -132.5 130.5 -190.5c57.333 -57.333 120.833 -100.333 190.5 -129
s144.834 -43 225.501 -43c82 0 157.333 14.167 226 42.5s132 71.5 190 129.5s101.5 121.5 130.5 190.5s43.5 143.833 43.5 224.5c0 81.333 -14.5 156.5 -43.5 225.5s-72.5 132.5 -130.5 190.5c-58.667 58.667 -122.5 102.334 -191.5 131.001s-143.833 43 -224.5 43z
M966.999 1036l-35 -0.00195312v-207h35c52 0 91.167 8.83301 117.5 26.5s39.5 43.834 39.5 78.501s-12.833 60.334 -38.5 77.001s-65.167 25 -118.5 25zM1004 1174c117.333 0 204.998 -19.832 262.998 -59.499s87 -99.834 87 -180.501
c0 -57.333 -17.5 -104.666 -52.5 -141.999s-84.5 -61.666 -148.5 -72.999c27.333 -14.667 52.833 -35.334 76.5 -62.001s45.167 -59.334 64.5 -98.001l111 -221h-229l-107 213c-25.333 52 -47.666 88.833 -66.999 110.5s-38.666 32.5 -57.999 32.5h-12v-356h-213v836h285z
M1024 1485c101.333 0 195.833 -18.333 283.5 -55s167.834 -91.334 240.501 -164.001s127 -152.667 163 -240s54 -182.333 54 -285c0 -101.333 -18 -195.5 -54 -282.5s-90.333 -166.833 -163 -239.5s-152.834 -127.334 -240.501 -164.001s-182.167 -55 -283.5 -55
s-195.833 18.333 -283.5 55s-167.834 91.334 -240.501 164.001s-127 152.5 -163 239.5s-54 181.167 -54 282.5c0 102.667 18 197.667 54 285s90.333 167.333 163 240s152.834 127.334 240.501 164.001s182.167 55 283.5 55z" />
    <glyph glyph-name="macron" unicode="&#xaf;" 
d="M197 1556h630v-188h-630v188z" />
    <glyph glyph-name="degree" unicode="&#xb0;" 
d="M512 1372c-48 0 -88.667 -16.667 -122 -50s-50 -74 -50 -122s16.5 -88.333 49.5 -121s73.833 -49 122.5 -49c48 0 88.667 16.5 122 49.5s50 73.167 50 120.5c0 48 -16.833 88.667 -50.5 122s-74.167 50 -121.5 50zM512 1534c44 0 86.333 -8.5 127 -25.5
s77 -41.167 109 -72.5c31.333 -32 55.166 -68 71.499 -108s24.5 -82.667 24.5 -128c0 -44.667 -8.16699 -87.167 -24.5 -127.5s-39.5 -75.5 -69.5 -105.5c-32 -32 -68.667 -56.5 -110 -73.5s-84.666 -25.5 -129.999 -25.5c-94 0 -172.833 31.833 -236.5 95.5
s-95.5 142.5 -95.5 236.5s32.167 173.167 96.5 237.5s143.5 96.5 237.5 96.5z" />
    <glyph glyph-name="plusminus" unicode="&#xb1;" horiz-adv-x="1716" 
d="M977 1284v-354h522v-236h-522v-354h-238v354h-522v236h522v354h238zM217 238h1282v-238h-1282v238z" />
    <glyph glyph-name="twosuperior" unicode="&#xb2;" horiz-adv-x="897" 
d="M412 836l369.998 -0.00195312v-168h-673v153l313 266c40.667 35.333 69.667 66.333 87 93s26 53.334 26 80.001c0 33.333 -12.167 60.333 -36.5 81s-56.166 31 -95.499 31c-41.333 0 -85.666 -7.5 -132.999 -22.5s-99 -38.167 -155 -69.5v186
c58 18 114.167 31.5 168.5 40.5s106.5 13.5 156.5 13.5c105.333 0 188 -21.5 248 -64.5s90 -101.5 90 -175.5c0 -48 -11.833 -92.167 -35.5 -132.5s-69.167 -89.166 -136.5 -146.499z" />
    <glyph glyph-name="threesuperior" unicode="&#xb3;" horiz-adv-x="897" 
d="M592 1120c61.333 -12 109 -36.333 143 -73s51 -82 51 -136c0 -86 -33 -150.5 -99 -193.5s-166 -64.5 -300 -64.5c-54 0 -105.667 3.83301 -155 11.5s-96.666 18.834 -141.999 33.501v174c44 -24 87.333 -42.167 130 -54.5s84 -18.5 124 -18.5
c63.333 0 112.333 10.667 147 32s52 51.666 52 90.999c0 42.667 -17.833 74.167 -53.5 94.5s-91.5 30.5 -167.5 30.5h-74v137h84c65.333 0 113 7.83301 143 23.5s45 40.5 45 74.5c0 30 -13 52.5 -39 67.5s-65.667 22.5 -119 22.5c-34.667 0 -72.5 -4.33301 -113.5 -13
s-84.833 -22 -131.5 -40v166c43.333 11.333 90.166 20 140.499 26s104.5 9 162.5 9c111.333 0 196.5 -18.667 255.5 -56s88.5 -91 88.5 -161c0 -46 -15 -85 -45 -117s-72.333 -54 -127 -66z" />
    <glyph glyph-name="acute" unicode="&#xb4;" 
d="M647 1638h283l-369 -376h-196z" />
    <glyph glyph-name="mu" unicode="&#xb5;" horiz-adv-x="1507" 
d="M174 -428v1548h361v-651c0 -77.333 16.667 -134.833 50 -172.5s84 -56.5 152 -56.5c68.667 0 119.667 18.833 153 56.5s50 95.167 50 172.5v651h360v-749c0 -47.333 5.5 -80.333 16.5 -99s29.5 -28 55.5 -28c12 0 23.5 1.66699 34.5 5s22.833 9 35.5 17v-250
c-35.333 -15.333 -68.5 -26.666 -99.5 -33.999s-61.5 -11 -91.5 -11c-59.333 0 -107.833 12.5 -145.5 37.5s-68.167 65.167 -91.5 120.5c-31.333 -52.667 -69.5 -92.167 -114.5 -118.5s-97.167 -39.5 -156.5 -39.5c-49.333 0 -91.333 7.83301 -126 23.5s-62 39.5 -82 71.5
v-494h-361z" />
    <glyph glyph-name="paragraph" unicode="&#xb6;" horiz-adv-x="1303" 
d="M604 1493h520v-1690h-190v1543h-189v-1543h-190v846c-136 16.667 -241 61.5 -315 134.5s-111 168.833 -111 287.5c0 126.667 43.333 228.667 130 306s201.667 116 345 116z" />
    <glyph glyph-name="periodcentered" unicode="&#xb7;" horiz-adv-x="778" 
d="M209 905h360v-387h-360v387z" />
    <glyph glyph-name="cedilla" unicode="&#xb8;" 
d="M602 0c38.667 -41.333 67.166 -79.668 85.499 -115.001s27.5 -68.666 27.5 -99.999c0 -63.333 -20.5 -110.166 -61.5 -140.499s-103.833 -45.5 -188.5 -45.5c-32 0 -65 2.16699 -99 6.5s-68.333 10.833 -103 19.5l-1 152c33.333 -10.667 63.833 -18.5 91.5 -23.5
s52.5 -7.5 74.5 -7.5c38.667 0 68.834 7.66699 90.501 23s32.5 36.333 32.5 63c0 17.333 -7.16699 39.666 -21.5 66.999s-36.5 61 -66.5 101h139z" />
    <glyph glyph-name="onesuperior" unicode="&#xb9;" horiz-adv-x="897" 
d="M141 825h207v521l-225 -52v160l229 49h226v-678h204v-157h-641v157z" />
    <glyph glyph-name="ordmasculine" unicode="&#xba;" horiz-adv-x="1155" 
d="M578 1520c142 0 254.167 -37 336.5 -111s123.5 -174.333 123.5 -301s-41 -226.667 -123 -300s-194.333 -110 -337 -110s-255.167 36.667 -337.5 110s-123.5 173.333 -123.5 300s41.167 227 123.5 301s194.833 111 337.5 111zM166 573h823v-200h-823v200zM578 1350
c-56 0 -99.167 -21 -129.5 -63s-45.5 -101.667 -45.5 -179s15.167 -136.666 45.5 -177.999s73.5 -62 129.5 -62c55.333 0 98.166 20.667 128.499 62s45.5 100.666 45.5 177.999s-15.167 137 -45.5 179s-73.166 63 -128.499 63z" />
    <glyph glyph-name="guillemotright" unicode="&#xbb;" horiz-adv-x="1323" 
d="M672 1063l493 -371v-186l-493 -369v242l293 221l-293 221v242zM193 1063l491 -371v-186l-491 -369v242l292 221l-292 221v242z" />
    <glyph glyph-name="onequarter" unicode="&#xbc;" horiz-adv-x="2120" 
d="M1593 641l-239 -324h239v324zM1575 836h248v-519h137v-155h-137v-162h-230v162h-391v168zM733 -29h-223l934 1549h223zM119 825h205v521l-224 -52v160l230 49h223v-678h205v-157h-639v157z" />
    <glyph glyph-name="onehalf" unicode="&#xbd;" horiz-adv-x="2120" 
d="M1649 168h371.998v-168h-675v154l315 268c41.333 35.333 70.5 66 87.5 92s25.5 52 25.5 78c0 33.333 -12.333 60.5 -37 81.5s-57 31.5 -97 31.5c-41.333 0 -85.166 -7.5 -131.499 -22.5s-97.833 -38.5 -154.5 -70.5v187c58.667 18 114.834 31.333 168.501 40
s105.167 13 154.5 13c106 0 188.833 -21.167 248.5 -63.5s89.5 -100.5 89.5 -174.5c0 -48 -12.167 -92.667 -36.5 -134s-69.5 -90 -135.5 -146zM732.998 -29h-223l934 1549h223zM118.998 825h205v521l-224 -52v160l230 49h223v-678h205v-157h-639v157z" />
    <glyph glyph-name="threequarters" unicode="&#xbe;" horiz-adv-x="2120" 
d="M1575 836h248v-519h137v-155h-137v-162h-230v162h-391v168zM1593 641l-239 -324h239v324zM606 1120c62 -12 110 -36.333 144 -73s51 -82 51 -136c0 -86 -33.167 -150.5 -99.5 -193.5s-166.5 -64.5 -300.5 -64.5c-54 0 -105.667 3.83301 -155 11.5
s-96.666 18.834 -141.999 33.501v174c44 -24 87.333 -42.167 130 -54.5s84 -18.5 124 -18.5c63.333 0 112.333 10.667 147 32s52 51.666 52 90.999c0 42.667 -17.667 74.167 -53 94.5s-91.333 30.5 -168 30.5h-74v137h84c65.333 0 113.166 7.83301 143.499 23.5
s45.5 40.5 45.5 74.5c0 30 -13.167 52.5 -39.5 67.5s-65.833 22.5 -118.5 22.5c-35.333 0 -73.333 -4.33301 -114 -13s-84.667 -22 -132 -40v166c43.333 11.333 90.333 20 141 26s104.667 9 162 9c111.333 0 196.5 -18.667 255.5 -56s88.5 -91 88.5 -161
c0 -46 -15 -85 -45 -117s-72.333 -54 -127 -66zM733 -29h-223l934 1549h223z" />
    <glyph glyph-name="questiondown" unicode="&#xbf;" horiz-adv-x="1188" 
d="M487 987h361v-49c0 -54 -10.833 -102 -32.5 -144s-68.834 -96.333 -141.501 -163l-64 -58c-37.333 -34 -64.666 -66.333 -81.999 -97s-26 -61.667 -26 -93c0 -46.667 16 -83.334 48 -110.001s76.667 -40 134 -40c54 0 112.5 11.333 175.5 34s128.167 56 195.5 100v-314
c-79.333 -28 -152.833 -48.667 -220.5 -62s-132.167 -20 -193.5 -20c-162.667 0 -286.667 33.167 -372 99.5s-128 162.833 -128 289.5c0 66 13 124.833 39 176.5s70.333 106.834 133 165.501l64 58c45.333 40.667 75 73.667 89 99s21 53 21 83v45zM848 1137h-361v356h361
v-356z" />
    <glyph glyph-name="Agrave" unicode="&#xc0;" horiz-adv-x="1585" 
d="M1094 272h-602l-95 -272h-387l553 1493h459l553 -1493h-387zM588 549h409l-204 594zM717 1899l198 -264h-196l-285 264h283z" />
    <glyph glyph-name="Aacute" unicode="&#xc1;" horiz-adv-x="1585" 
d="M1094 272h-602l-95 -272h-387l553 1493h459l553 -1493h-387zM588 549h409l-204 594zM819 1899h283l-285 -264h-196z" />
    <glyph glyph-name="Acircumflex" unicode="&#xc2;" horiz-adv-x="1585" 
d="M1094 272h-602l-95 -272h-387l553 1493h459l553 -1493h-387zM588 549h409l-204 594zM614 1899h308l223 -264h-178l-199 161l-199 -161h-178z" />
    <glyph glyph-name="Atilde" unicode="&#xc3;" horiz-adv-x="1585" 
d="M1094 272h-602l-95 -272h-387l553 1493h459l553 -1493h-387zM588 549h409l-204 594zM770 1684l-56.0029 35c-2 1.33301 -5.33301 3.33301 -10 6c-30 17.333 -54.333 26 -73 26c-21.333 0 -38.666 -10 -51.999 -30s-20 -46.667 -20 -80v-6h-139
c0 3.33301 0.333008 8.33301 1 15s1 11.667 1 15c0 70.667 17.833 127.667 53.5 171s82.5 65 140.5 65c24.667 0 49.334 -4.16699 74.001 -12.5s50 -20.5 76 -36.5l59 -39c14 -9.33301 27.5 -16.5 40.5 -21.5s24.833 -7.5 35.5 -7.5c24.667 0 43.5 10 56.5 30
s19.5 49 19.5 87h139c0 -4 -0.333008 -9.33301 -1 -16s-1 -11.667 -1 -15c0 -70.667 -17.833 -127.5 -53.5 -170.5s-82.5 -64.5 -140.5 -64.5c-25.333 0 -49.666 3.66699 -72.999 11s-49 20 -77 38z" />
    <glyph glyph-name="Adieresis" unicode="&#xc4;" horiz-adv-x="1585" 
d="M1094 272h-602l-95 -272h-387l553 1493h459l553 -1493h-387zM588 549h409l-204 594zM453 1899h235v-246h-235v246zM848 1899h235v-246h-235v246z" />
    <glyph glyph-name="Aring" unicode="&#xc5;" horiz-adv-x="1585" 
d="M1032 1464l542.997 -1464h-387l-94 272h-602l-95 -272h-387l543 1464c-15.333 22.667 -26.666 46.5 -33.999 71.5s-11 51.833 -11 80.5c0 78 27.833 145 83.5 201s122.834 84 201.501 84c77.333 0 144 -28 200 -84s84 -123 84 -201
c0 -31.333 -3.66699 -59.666 -11 -84.999s-18.666 -47.666 -33.999 -66.999zM661.997 1616c0 -36 12.833 -66.833 38.5 -92.5s56.5 -38.5 92.5 -38.5s66.833 12.833 92.5 38.5s38.5 56.5 38.5 92.5s-13 66.833 -39 92.5s-56.667 38.5 -92 38.5
c-36 0 -66.833 -12.833 -92.5 -38.5s-38.5 -56.5 -38.5 -92.5zM587.997 548.998h409l-204 594z" />
    <glyph glyph-name="AE" unicode="&#xc6;" horiz-adv-x="2222" 
d="M891 1237l-256 -610h377v610h-121zM625 1493h1425v-291h-653v-278h614v-291h-614v-342h676v-291h-1061v350h-494l-147 -350h-371z" />
    <glyph glyph-name="Ccedilla" unicode="&#xc7;" horiz-adv-x="1503" 
d="M1372 82c-70.667 -36.667 -144.334 -64.334 -221.001 -83.001s-156.667 -28 -240 -28c-248.667 0 -445.667 69.5 -591 208.5s-218 327.5 -218 565.5c0 238.667 72.667 427.5 218 566.5s342.333 208.5 591 208.5c83.333 0 163.333 -9.33301 240 -28
s150.334 -46.334 221.001 -83.001v-309c-71.333 48.667 -141.666 84.334 -210.999 107.001s-142.333 34 -219 34c-137.333 0 -245.333 -44 -324 -132s-118 -209.333 -118 -364c0 -154 39.333 -275 118 -363s186.667 -132 324 -132c76.667 0 149.667 11.333 219 34
s139.666 58.334 210.999 107.001v-309zM973 0c38.667 -41.333 67.166 -79.668 85.499 -115.001s27.5 -68.666 27.5 -99.999c0 -63.333 -20.5 -110.166 -61.5 -140.499s-103.833 -45.5 -188.5 -45.5c-32 0 -65 2.16699 -99 6.5s-68.333 10.833 -103 19.5l-1 152
c33.333 -10.667 63.833 -18.5 91.5 -23.5s52.5 -7.5 74.5 -7.5c38.667 0 68.834 7.66699 90.501 23s32.5 36.333 32.5 63c0 17.333 -7.16699 39.666 -21.5 66.999s-36.5 61 -66.5 101h139z" />
    <glyph glyph-name="Egrave" unicode="&#xc8;" horiz-adv-x="1399" 
d="M188 1493h1039v-291h-654v-278h615v-291h-615v-342h676v-291h-1061v1493zM641 1899l198 -264h-196l-285 264h283z" />
    <glyph glyph-name="Eacute" unicode="&#xc9;" horiz-adv-x="1399" 
d="M188 1493h1039v-291h-654v-278h615v-291h-615v-342h676v-291h-1061v1493zM743 1899h283l-285 -264h-196z" />
    <glyph glyph-name="Ecircumflex" unicode="&#xca;" horiz-adv-x="1399" 
d="M188 1493h1039v-291h-654v-278h615v-291h-615v-342h676v-291h-1061v1493zM538 1899h308l223 -264h-178l-199 161l-199 -161h-178z" />
    <glyph glyph-name="Edieresis" unicode="&#xcb;" horiz-adv-x="1399" 
d="M188 1493h1039v-291h-654v-278h615v-291h-615v-342h676v-291h-1061v1493zM377 1899h235v-246h-235v246zM772 1899h235v-246h-235v246z" />
    <glyph glyph-name="Igrave" unicode="&#xcc;" horiz-adv-x="762" 
d="M188 1493h385v-1493h-385v1493zM309 1899l198 -264h-196l-285 264h283z" />
    <glyph glyph-name="Iacute" unicode="&#xcd;" horiz-adv-x="762" 
d="M188 1493h385v-1493h-385v1493zM411 1899h283l-285 -264h-196z" />
    <glyph glyph-name="Icircumflex" unicode="&#xce;" horiz-adv-x="762" 
d="M188 1493h385v-1493h-385v1493zM206 1899h308l223 -264h-178l-199 161l-199 -161h-178z" />
    <glyph glyph-name="Idieresis" unicode="&#xcf;" horiz-adv-x="762" 
d="M188 1493h385v-1493h-385v1493zM45 1899h235v-246h-235v246zM440 1899h235v-246h-235v246z" />
    <glyph glyph-name="Eth" unicode="&#xd0;" horiz-adv-x="1716" 
d="M592 1202v-321h235v-260h-235v-330h137c157.333 0 277.5 39 360.5 117s124.5 191.333 124.5 340c0 148 -41.333 260.667 -124 338s-203 116 -361 116h-137zM207 1493l405 -0.00292969c227.333 0 396.333 -16.167 507 -48.5s206 -87.166 286 -164.499
c69.333 -67.333 121.166 -145 155.499 -233s51.5 -187.667 51.5 -299c0 -112.667 -17.167 -213.167 -51.5 -301.5s-86.166 -166.166 -155.499 -233.499c-80.667 -77.333 -177 -132.166 -289 -164.499s-280 -48.5 -504 -48.5h-405v621h-174v260h174v612z" />
    <glyph glyph-name="Ntilde" unicode="&#xd1;" horiz-adv-x="1714" 
d="M188 1493h430l543 -1024v1024h365v-1493h-430l-543 1024v-1024h-365v1493zM823 1684l-56.0029 35c-2 1.33301 -5.33301 3.33301 -10 6c-30 17.333 -54.333 26 -73 26c-21.333 0 -38.666 -10 -51.999 -30s-20 -46.667 -20 -80v-6h-139c0 3.33301 0.333008 8.33301 1 15
s1 11.667 1 15c0 70.667 17.833 127.667 53.5 171s82.5 65 140.5 65c24.667 0 49.334 -4.16699 74.001 -12.5s50 -20.5 76 -36.5l59 -39c14 -9.33301 27.5 -16.5 40.5 -21.5s24.833 -7.5 35.5 -7.5c24.667 0 43.5 10 56.5 30s19.5 49 19.5 87h139
c0 -4 -0.333008 -9.33301 -1 -16s-1 -11.667 -1 -15c0 -70.667 -17.833 -127.5 -53.5 -170.5s-82.5 -64.5 -140.5 -64.5c-25.333 0 -49.666 3.66699 -72.999 11s-49 20 -77 38z" />
    <glyph glyph-name="Ograve" unicode="&#xd2;" horiz-adv-x="1741" 
d="M870 1241c-117.333 0 -208.333 -43.333 -273 -130s-97 -208.667 -97 -366c0 -156.667 32.333 -278.334 97 -365.001s155.667 -130 273 -130c118 0 209.333 43.333 274 130s97 208.334 97 365.001c0 157.333 -32.333 279.333 -97 366s-156 130 -274 130zM870 1520
c240 0 428 -68.667 564 -206s204 -327 204 -569c0 -241.333 -68 -430.666 -204 -567.999s-324 -206 -564 -206c-239.333 0 -427.166 68.667 -563.499 206s-204.5 326.666 -204.5 567.999c0 242 68.167 431.667 204.5 569s324.166 206 563.499 206zM795 1899l198 -264h-196
l-285 264h283z" />
    <glyph glyph-name="Oacute" unicode="&#xd3;" horiz-adv-x="1741" 
d="M870 1241c-117.333 0 -208.333 -43.333 -273 -130s-97 -208.667 -97 -366c0 -156.667 32.333 -278.334 97 -365.001s155.667 -130 273 -130c118 0 209.333 43.333 274 130s97 208.334 97 365.001c0 157.333 -32.333 279.333 -97 366s-156 130 -274 130zM870 1520
c240 0 428 -68.667 564 -206s204 -327 204 -569c0 -241.333 -68 -430.666 -204 -567.999s-324 -206 -564 -206c-239.333 0 -427.166 68.667 -563.499 206s-204.5 326.666 -204.5 567.999c0 242 68.167 431.667 204.5 569s324.166 206 563.499 206zM897 1899h283l-285 -264
h-196z" />
    <glyph glyph-name="Ocircumflex" unicode="&#xd4;" horiz-adv-x="1741" 
d="M870 1241c-117.333 0 -208.333 -43.333 -273 -130s-97 -208.667 -97 -366c0 -156.667 32.333 -278.334 97 -365.001s155.667 -130 273 -130c118 0 209.333 43.333 274 130s97 208.334 97 365.001c0 157.333 -32.333 279.333 -97 366s-156 130 -274 130zM870 1520
c240 0 428 -68.667 564 -206s204 -327 204 -569c0 -241.333 -68 -430.666 -204 -567.999s-324 -206 -564 -206c-239.333 0 -427.166 68.667 -563.499 206s-204.5 326.666 -204.5 567.999c0 242 68.167 431.667 204.5 569s324.166 206 563.499 206zM692 1899h308l223 -264
h-178l-199 161l-199 -161h-178z" />
    </font>
</defs>
</svg>
